查看: 35|回复: 1

[剧情片] 无常 This.Transient.Life.1970.720p.BluRay.x264-GHOULS 5.47GB

[复制链接]

 成长值: 3210

级别:资源管理组

注册时间
2017-10-20
最后登录
2019-11-20
听众
1
收听
0
主题
87279
蓝光币
63248 枚
贡献
11638 点
发表于 2019-11-5 21:26:03 | 显示全部楼层 |阅读模式
无常 This.Transient.Life.1970.720p.BluRay.x264-GHOULS 5.47GB-1.png ! Q+ T4 b! w% g6 H2 E

; w% M- I& g: {* ^0 {译  名 无常 / This Transient Life
# ?3 D* l6 f8 A, E5 e片  名 無常# {! }* f' Y0 ^% m) Z- U
年  代 1970
1 ^! z% l2 T% I2 g  O2 R产  地 日本
. l3 E0 F- w% r% m类  别 剧情8 d) p$ x. P1 @: w% O* g2 _
语  言 日语
" V4 G/ k. i  U3 R/ {上映日期 1970-08-08
& S0 @  p4 o5 t0 BIMDb评分  7.9/10 from 728 users
9 ?3 g/ o, O& FIMDb链接  http://www.imdb.com/title/tt0128364
7 S: n/ T' w9 X6 i3 o" A豆瓣评分 7.8/10 from 877 users" a, y+ G/ g' K  O! Q
豆瓣链接 https://movie.douban.com/subject/1440359/  n- \& I. P% p6 F9 Q
片  长 143 分钟3 r/ _" |$ @% c4 l
导  演 实相寺昭雄 Akio Jissoji5 J4 a1 M0 b7 s, S
编  剧 石堂淑朗 Toshir? Ishid?( E5 `3 k+ |0 S$ X- K2 j/ u
主  演 田村亮3 ]! Z1 N! R  U% d9 I/ s, N' f) D) q
       佐々木功
) A" d3 \8 h$ F- ^7 F2 `) F( d       田中三津子
$ A- Y' l: s+ r# Z$ r
) Y# z) [- C6 }7 [& ^1 R. a& a% \4 Y; J) r
标  签 日本 | 情色 | 日本电影 | 実相寺昭雄 | 人性 | 伦理 | 实相寺昭雄 | 1970  s6 q1 U. ?/ X9 }+ k2 Q

4 C- o% A% b4 s- |5 |+ D& _! S简  介  / _" x( z% K; y/ ]0 B. m( `

2 N5 L7 f9 g% n  经营批发买卖的大阪日野家,女儿百合(司美智子 饰)已到适嫁年龄,却迟迟未选定夫家,怙恃为此甚为焦虑。儿子正夫(田村亮 饰)无意继续家业,对妹习也没任何爱好,只醉心于佛像的研讨。他对姐姐存有深深的迷恋,并不希望姐姐嫁人,是以常与怙恃发生争持。
4 U- [: U2 i" K, i  某日日野夫妻围出,助手岩下(花之本寿 饰)亦回家探亲,家中只剩姐弟二人。夜晚,姐弟终究冲破忌讳,这层隐蔽关系更被寺院主持荻野(冈村春彦 饰)。未几百合出现妊娠反应,为掩人线人,正夫设想让怙恃赞成将姐姐嫁给岩下,而自己则在荻野的倡议下分开故乡,前往佛像雕塑师森康高(冈田英次 饰)处妹习雕镂。一年后,正夫回抵故乡,与姐姐旧情复燃,岩下无意间发现姐弟俩的奥秘,悲伤之余走上了不归之路……
, z0 V: T( ~5 B% t% F3 p# Y
  1. Video
    & Y" c' n. Z2 {0 E4 N+ ?- ~
  2. ID                                       : 1
      o2 u3 L8 b* z8 Z7 d9 l2 z% u" H
  3. Format                                   : AVC
    ) |# C/ W9 s4 c, u, b
  4. Format/Info                              : Advanced Video Codec6 w' G- Q: \3 P9 g
  5. Format profile                           : High@L4
    8 R4 D1 j5 X3 M+ Y7 R$ S! \8 B
  6. Format settings                          : CABAC / 11 Ref Frames) Z5 b. m  Y: T, s6 S' ~8 C
  7. Format settings, CABAC                   : Yes
    ; @) L7 c% [5 m0 G
  8. Format settings, Reference frames        : 11 frames
    9 S9 \# H" O, C5 o% P
  9. Codec ID                                 : V_MPEG4/ISO/AVC0 f4 y2 V/ _# B. Z& z4 x' R  n  |
  10. Duration                                 : 2 h 23 min8 [; m, j' r/ p( A1 x
  11. Bit rate                                 : 4 747 kb/s( j2 A* O9 y6 b8 h
  12. Width                                    : 992 pixels
    % P8 L$ l3 ]4 V8 ], d. T
  13. Height                                   : 720 pixels% d! J; B1 V6 `! l  f
  14. Display aspect ratio                     : 1.378
    5 \0 I: C0 q3 W( A3 S
  15. Frame rate mode                          : Constant
    % j6 k7 m3 K) C% o: W( p2 P
  16. Frame rate                               : 23.976 (24000/1001) FPS& V8 O: ~( r- _4 G4 M( _( M  q
  17. Color space                              : YUV
    7 J" i! b$ N; @6 u5 i1 `( f8 }8 G
  18. Chroma subsampling                       : 4:2:0- \% k/ y6 n  e8 \, F
  19. Bit depth                                : 8 bits+ F% \6 g* E! Y4 q" E0 ~
  20. Scan type                                : Progressive
      H$ R' H7 M, m+ \! e9 S! E$ ^
  21. Bits/(Pixel*Frame)                       : 0.277
    / U9 O0 T: W& `
  22. Stream size                              : 4.76 GiB (87%)& ?( s2 A$ }7 l
  23. Writing library                          : x264 core 158 r2984 3759fcb9 Z4 `8 M$ g6 Y. g7 s2 x
  24. Encoding settings                        : cabac=1 / ref=11 / deblock=1:-3:-3 / analyse=0x3:0x133 / me=umh / subme=9 / psy=1 / psy_rd=1.00:0.00 / mixed_ref=1 / me_range=24 / chroma_me=1 / trellis=1 / 8x8dct=1 / cqm=0 / deadzone=21,11 / fast_pskip=0 / chroma_qp_offset=-2 / threads=22 / lookahead_threads=3 / sliced_threads=0 / nr=0 / decimate=1 / interlaced=0 / bluray_compat=0 / constrained_intra=0 / bframes=8 / b_pyramid=2 / b_adapt=2 / b_bias=0 / direct=3 / weightb=1 / open_gop=0 / weightp=2 / keyint=250 / keyint_min=23 / scenecut=40 / intra_refresh=0 / rc_lookahead=60 / rc=2pass / mbtree=1 / bitrate=4747 / ratetol=1.0 / qcomp=0.60 / qpmin=0 / qpmax=69 / qpstep=4 / cplxblur=20.0 / qblur=0.5 / vbv_maxrate=62500 / vbv_bufsize=78125 / nal_hrd=none / filler=0 / ip_ratio=1.40 / aq=1:1.002 |/ [3 q! Q  j6 I! v, j9 v
  25. Default                                  : Yes9 Y0 a1 h* E' A2 g
  26. Forced                                   : No
    " L& B5 u$ [3 e3 H+ ?+ Q! r

  27. ) A5 x4 L) t5 A% c/ Z
  28. Audio
    $ H0 k# C. r7 b. Z
  29. ID                                       : 2. E: g. w3 ^" l6 K& ^! f! h2 ~4 n
  30. Format                                   : FLAC1 B( p4 [! b7 U( P* v( s/ n! @8 L
  31. Format/Info                              : Free Lossless Audio Codec
    7 A. u! I; A5 j+ f
  32. Codec ID                                 : A_FLAC
    " L: @6 I. Y' {
  33. Duration                                 : 2 h 23 min9 d" {* b' U1 A, E' m
  34. Bit rate mode                            : Variable2 m' `6 {: a& E* V) E& B- |& S
  35. Bit rate                                 : 697 kb/s
    / B) I. E7 m4 O" }# ]5 Q/ p
  36. Channel(s)                               : 1 channel" W2 |/ V9 s" l7 b
  37. Channel layout                           : C- p( Z7 x& \3 Z( T9 B: a/ {
  38. Sampling rate                            : 48.0 kHz+ H( Y* P8 O: ^' M, _5 O: ]: h; R1 b# R1 J
  39. Frame rate                               : 10.417 FPS (4608 SPF)* Y/ |5 _4 m- [( K1 w; K9 p+ w
  40. Bit depth                                : 24 bits
    5 C" m" ]; \0 l0 j& @  D, B* g
  41. Compression mode                         : Lossless
      F. a5 A9 `$ {! d6 o
  42. Stream size                              : 716 MiB (13%)# I7 _: [: a3 H9 s2 {) I0 f
  43. Writing library                          : Lavf58.29.100
    : I0 j7 J/ X3 j# x% }" ?2 F
  44. Language                                 : Japanese
    " C: u9 l8 _& Y" X* w. c
  45. Default                                  : Yes' u- d& W. n5 ]% x: _5 m& s
  46. Forced                                   : No5 y3 [7 q2 Y- g6 N1 a

  47. ; ?1 b# B) X0 D$ @1 [* d* I
  48. Text
    # K; ?8 }  j% ]- V) ]7 e: n
  49. ID                                       : 3: `! c4 y  ~  u- V& f' h- W- f$ B
  50. Format                                   : UTF-8
    4 H& h) V5 X4 u' H; p
  51. Codec ID                                 : S_TEXT/UTF83 y! g  ]4 C/ [& ~
  52. Codec ID/Info                            : UTF-8 Plain Text4 X8 x4 Q! l; B. d& G5 p2 E# Z; E) C
  53. Duration                                 : 2 h 16 min
    - r2 U4 I1 T2 N  s' o* W; }$ Y
  54. Bit rate                                 : 24 b/s
    2 h: p' B; q& P
  55. Count of elements                        : 713
    ! h1 J& l4 w- z3 M
  56. Stream size                              : 24.2 KiB (0%)
    , a9 y1 b$ q! j/ K
  57. Language                                 : English
    - u  l1 o( g% [* K. C+ \
  58. Default                                  : Yes
    3 W" _. ^  T4 \) B
  59. Forced                                   : No+ ]8 V1 m4 G5 m, b
  60. % ~! |& @- g! U1 j
  61. Menu
    4 N! P/ Z( k2 n
  62. 00:00:00.000                             : en:Chapter 01
    # i- f. G3 F) r& x# M' d1 M0 J
  63. 00:11:50.585                             : en:Chapter 02$ N' e6 l% x# l( `4 z( f! ]9 J. E
  64. 00:24:05.486                             : en:Chapter 031 n; i# ~% Q5 p* O' @3 t
  65. 00:37:14.732                             : en:Chapter 04
    % c: Q! c0 K( Z6 S" p0 z) V7 \
  66. 00:47:25.926                             : en:Chapter 05' e. K0 i5 p- w
  67. 00:59:55.217                             : en:Chapter 06
    5 d7 j3 o! u3 g7 X3 }( [; p
  68. 01:13:24.317                             : en:Chapter 07
    7 T1 B/ y: S- D: ]
  69. 01:25:19.156                             : en:Chapter 08
    8 K* r) O% J! _9 G# m8 M& o
  70. 01:35:36.522                             : en:Chapter 097 n- v$ B  \, k. J4 u
  71. 01:45:48.759                             : en:Chapter 10
    7 W( X- d1 l7 P3 e7 G, W4 `5 \
  72. 02:00:15.375                             : en:Chapter 119 F" ~! `! C) X; m) v# r( j5 g4 P
  73. 02:10:16.517                             : en:Chapter 12
复制代码
) j: a8 F$ H4 T  s6 \) ~
无常 This.Transient.Life.1970.720p.BluRay.x264-GHOULS 5.47GB-2.png 2 f9 \1 x1 j% t, U* w; T. N

3 H/ f- {" _4 D, _3 ]
' @7 C7 q$ S2 g1 ]; m$ E
$ m. l9 ~; b- _. k& z6 R0 [$ i9 R; ~. g" w8 I0 h

7 s( ^  N6 a0 m: V4 v, |1 G% U0 R8 J7 q1 M1 c

8 s7 T; j0 H7 h- F; y0 O& Q- D7 t* R0 i
VIP会员免费任意下载本站所有资源!---点击开通
回复

使用道具 举报

级别:一举成名 Lv.7

注册时间
2019-4-24
最后登录
2019-11-20
听众
13
收听
0
主题
0
蓝光币
197 枚
贡献
0 点
发表于 2019-11-7 08:19:04 | 显示全部楼层
楼主发贴辛苦了,谢谢楼主分享!我觉得中国高清电影网是注册对了!
VIP会员免费任意下载本站所有资源!---点击开通
回复

使用道具 举报

懒得打字嘛,点击右侧快捷回复 【右侧内容,后台自定义】
您需要登录后才可以回帖 登录 | 立即注册

本版积分规则

QQ|Archiver|手机版|小黑屋| 中国高清网 |网站地图

GMT+8, 2019-11-20 22:53 , Processed in 0.234721 second(s), 37 queries .

Powered by HDchina X3.4

Copyright 2017-2019©HDchina.All right reserved

返回顶部 联系我们