查看: 55|回复: 3

[动画片] 猫与桃花源 Cats.and.Peachtopia.2018.720p.BluRay.x264-NTROPiC 3.27GB

[复制链接]

 成长值: 3210

级别:资源管理组

注册时间
2017-10-20
最后登录
2019-11-20
听众
1
收听
0
主题
87221
蓝光币
63004 枚
贡献
11580 点
发表于 2019-11-5 17:58:20 | 显示全部楼层 |阅读模式
猫与桃花源 Cats.and.Peachtopia.2018.720p.BluRay.x264-NTROPiC 3.27GB-1.png
0 \  I& {- x( p7 b. u, |
# B( t9 Y8 y2 Q; `. W! C/ V* S2 g译  名 Cats and Peachtopia / 猫咪妈咪HOME(港)
9 x& I( q/ M' G( F% p* {4 ]* d片  名 猫与桃花源' s) D. G" B  N: z! q6 W
年  代 2018
# l* T8 G1 z! M0 r' [; `. `0 x, b产  地 中国大陆' s! u# e2 W% q/ p
类  别 动画 / 家庭 / 冒险0 w7 P! z2 d, ?: t) N: ?2 {
语  言 汉语普通话: j+ R, T; s5 |, Z: c; N# e
上映日期 2018-04-05(中国大陆)$ R2 v' ~2 |7 P% s0 |
IMDb评分  5.0/10 from 313 users3 H- e" `6 D1 G' K6 N: Z
IMDb链接  https://www.imdb.com/title/tt7886614$ w/ V2 s: W' P8 C" h
豆瓣评分 6.2/10 from 5682 users
9 w0 x& ]  \. w1 F4 l豆瓣链接 https://movie.douban.com/subject/27114911/
" I% R$ V7 ~( i1 J0 F( @" j! l" b) H片  长 105分钟! M4 E4 d. b0 a$ I/ n- C' @
导  演 王微 Gary Wang
5 f! n1 ]. B7 J0 R编  剧 王微 Gary Wang4 o! q  ~7 d! u5 P, ?% T9 \8 y
主  演 李宇峰 Yufeng Li# P1 e9 s' ~; H7 k$ ^
       杨砚铎 Yanze Yang$ S9 x: H/ U% r) f. V
       周华健 Emil Chau" Y4 f0 @$ K4 w  `# a
       张喆 Zhe Zhang. [6 P, }: O9 q# _' ^( R
       陈霖生 Linsheng Chen
; ]( N+ s# x2 H. J( ?3 E0 d3 b4 z# m' N+ }% }4 A, t

7 z9 E5 k5 i: C4 i标  签 动画 | 猫 | 亲情 | 冒险 | 中国大陆 | 儿童 | 2018 | 笑剧) ^  K9 V# X3 Q: J: m
1 {2 e2 d2 f0 B5 }
简  介  ( y4 ^* g! y/ C2 B; {+ K. \
) G$ v/ u+ N+ \) t
  一只经常在窗台发愣的家猫毯子,一向以来和儿子斗篷安逸地生活在城市的一座高楼公寓中。有一天毯子不能反面斗篷别离踏上冒险旅程,去寻觅传闻中的猫的桃花源。与此同时,毯子必须面临心中一段不愿提起的往事,也许这也是毯子惧怕围面的天下,不愿意分开家的重要缘由......) C8 J9 L0 ?6 d! M  {! v
7 y& x: B! T& [  l
获奖情况    L+ C. C. x7 R+ J9 i, l& T

$ m# F& g9 Q* ~6 L  第55届台北金马影展(2018)
- [- V  J9 Y6 w% Q, \  金马奖 最好动画长片(提名) 王微
$ h) G6 T1 ~8 u
  1. Video
    0 e2 S- B  H% u2 W/ Q. ]" f
  2. ID                                       : 1# ^$ ?3 K: L0 F' O$ P  J, R
  3. Format                                   : AVC  l- }1 I( K$ N+ y) w  t  C2 ~' O
  4. Format/Info                              : Advanced Video Codec( p0 i% ]8 D7 W
  5. Format profile                           : High@L4
    ' z2 y" [( T4 L/ y2 ~
  6. Format settings                          : CABAC / 8 Ref Frames# G) j1 U* [  }% {( O
  7. Format settings, CABAC                   : Yes0 ?/ T: R9 ~' w. N
  8. Format settings, Reference frames        : 8 frames
    - ^8 C; a+ H; d- W; D7 y; }
  9. Codec ID                                 : V_MPEG4/ISO/AVC
    : H2 e3 a& X- o4 e' L( t0 J
  10. Duration                                 : 1 h 27 min
    5 a3 n0 D( ~8 K* z6 U4 V* k! L3 E
  11. Bit rate                                 : 3 861 kb/s
    9 l; L* V1 r% N6 u+ c* v
  12. Width                                    : 1 280 pixels
    , X4 ~4 e5 p; y  s
  13. Height                                   : 536 pixels
    # D8 S6 p7 Q. S3 x: C5 b$ r
  14. Display aspect ratio                     : 2.40:1$ r# g% E: h. P
  15. Frame rate mode                          : Constant6 O- A) A' z9 I5 S4 @* q5 q* j4 m
  16. Frame rate                               : 24.000 FPS
    : N: T! f- s) ~4 T- z3 E7 N
  17. Color space                              : YUV
    ! c7 v& K5 m- V3 R7 j' s
  18. Chroma subsampling                       : 4:2:0
    * y( ^2 e+ U& l+ C
  19. Bit depth                                : 8 bits+ Y$ I& c, w; P1 s
  20. Scan type                                : Progressive
    - _" o9 _" k  ]; h9 D8 j$ @4 L
  21. Bits/(Pixel*Frame)                       : 0.234
    6 x- K1 E! Q1 f4 }, j0 J
  22. Stream size                              : 2.35 GiB (72%)
    ( `  c0 G4 J* o# J  o
  23. Writing library                          : x264 core 157 r2969 d4099dd
    9 b; T/ S. D! W( p( U. ?* g+ h
  24. Encoding settings                        : cabac=1 / ref=8 / deblock=1:-1:-1 / analyse=0x3:0x133 / me=umh / subme=10 / psy=1 / psy_rd=0.95:0.00 / mixed_ref=1 / me_range=24 / chroma_me=1 / trellis=2 / 8x8dct=1 / cqm=0 / deadzone=21,11 / fast_pskip=0 / chroma_qp_offset=-4 / threads=17 / lookahead_threads=1 / sliced_threads=0 / slices=4 / nr=0 / decimate=1 / interlaced=0 / bluray_compat=0 / constrained_intra=0 / bframes=3 / b_pyramid=2 / b_adapt=2 / b_bias=0 / direct=3 / weightb=1 / open_gop=0 / weightp=2 / keyint=240 / keyint_min=24 / scenecut=40 / intra_refresh=0 / rc=2pass / mbtree=0 / bitrate=3861 / ratetol=2.0 / qcomp=0.60 / qpmin=0 / qpmax=69 / qpstep=4 / cplxblur=20.0 / qblur=0.5 / ip_ratio=1.40 / pb_ratio=1.30 / aq=2:0.807 t9 p6 w) r2 o! ^! D' Q3 w
  25. Default                                  : Yes. G" F7 {/ Z! E7 a( q0 w$ ]+ _( |
  26. Forced                                   : No
    . W! G8 e2 Z& L# i7 f# A! R

  27. 0 N8 ]% Y) k* {7 K5 k9 I
  28. Audio
    , t* w, I; m9 G9 ~! `" J/ h
  29. ID                                       : 2+ B% c3 ?/ T( h4 t
  30. Format                                   : DTS
      L6 ]2 a: L# W; c2 z' }- @
  31. Format/Info                              : Digital Theater Systems
    % n/ a! q5 E+ i9 P5 R5 k: n
  32. Codec ID                                 : A_DTS
    8 ?4 Q. u. k# x! J, N5 P& W  E2 I. M
  33. Duration                                 : 1 h 27 min8 ~& x0 V. l+ d  o! Y
  34. Bit rate mode                            : Constant2 |9 C3 C) i! C& y
  35. Bit rate                                 : 1 509 kb/s) Y0 X7 C) c7 l
  36. Channel(s)                               : 6 channels) i( H9 g4 P( |: u0 Y, |
  37. Channel layout                           : C L R Ls Rs LFE* w! S8 P& f+ Z- a7 I7 M$ G
  38. Sampling rate                            : 48.0 kHz
    # T: v3 W5 K* {: B
  39. Frame rate                               : 93.750 FPS (512 SPF)% j" O1 M2 U: i0 @  s
  40. Bit depth                                : 24 bits
    . n4 a8 w% Y! O( L. E& u3 c
  41. Compression mode                         : Lossy
    ' [6 K$ F9 W$ K* Q# x
  42. Stream size                              : 942 MiB (28%)5 E" N# w, y$ ?9 {/ P3 m4 O6 O
  43. Language                                 : English
    4 F7 \- Z' }3 b5 l- @% ]
  44. Default                                  : Yes9 ~$ |" l' R) f( A
  45. Forced                                   : Yes
    : \) j( @0 }9 C

  46. 1 g2 k# `' ]* {; {3 d6 [) O% B
  47. Menu8 t4 _6 F4 E5 h4 W! Z
  48. 00:00:00.000                             : it:Capitolo 01& P; H: B- q% J9 M! E1 E
  49. 00:04:26.708                             : it:Capitolo 026 t! E: O) T0 w6 k1 N9 ~
  50. 00:08:16.958                             : it:Capitolo 03
    7 k1 Q$ r* E! W2 h( J
  51. 00:12:11.708                             : it:Capitolo 04
    + z& [+ P5 ~# C! o2 ~
  52. 00:16:42.833                             : it:Capitolo 05
    5 h/ W6 t7 D/ n$ X8 a
  53. 00:21:00.708                             : it:Capitolo 06
    9 q+ i) F! `6 B1 U( G( t4 Q0 ]7 k
  54. 00:24:57.166                             : it:Capitolo 07
    * |1 `5 n0 g5 x( c2 s
  55. 00:28:55.666                             : it:Capitolo 08
    & `* W# I8 x" j, J
  56. 00:33:15.333                             : it:Capitolo 09. ?( H& |+ i+ O5 U
  57. 00:37:32.416                             : it:Capitolo 109 h- q$ R1 Q5 O8 X: s0 T5 {
  58. 00:41:37.416                             : it:Capitolo 11  o% E% ?' Z% J% C0 _. g2 L5 h
  59. 00:46:38.500                             : it:Capitolo 12
    1 R% y9 K4 N7 w  ]: {" N1 G
  60. 00:50:34.750                             : it:Capitolo 13" k1 O1 G  B( N" p. p
  61. 00:54:45.000                             : it:Capitolo 14
    $ a' d& f# C) \' J
  62. 00:59:32.166                             : it:Capitolo 150 L* Q% x( W3 {! t1 a. }
  63. 01:03:41.916                             : it:Capitolo 16
    : k# R2 Z+ j; F; z7 B! U2 c  I
  64. 01:08:18.291                             : it:Capitolo 17
    : B7 U. r* X  V, \. e# O" b
  65. 01:13:20.416                             : it:Capitolo 18/ u! d+ k( n+ g1 R9 M- U0 w/ p
  66. 01:17:26.541                             : it:Capitolo 197 A2 O1 m: y7 J6 S4 L5 k. T2 R
  67. 01:23:26.875                             : it:Capitolo 20
复制代码
( U( h% \: I$ G7 @
猫与桃花源 Cats.and.Peachtopia.2018.720p.BluRay.x264-NTROPiC 3.27GB-2.png 8 t' F7 H: N* s& I

+ i- |' ^) G- ], S& K
6 S6 Z5 u* \; `& k/ o: W* S! x$ p" _5 p! h7 ]( w9 S
; L, q; A: |2 a5 e4 V
3 A( t4 C* l- F) M$ S% I  D" N% Q

! r# v, R4 Y- I+ P8 H
7 E# {! c9 Z$ r7 P1 l6 U
VIP会员免费任意下载本站所有资源!---点击开通
回复

使用道具 举报

级别:专业龙套 Lv.4

注册时间
2019-4-11
最后登录
2019-11-20
听众
12
收听
0
主题
0
蓝光币
172 枚
贡献
0 点
发表于 2019-11-6 11:21:36 | 显示全部楼层

% `8 V' k( p, n6 z楼主太厉害了!楼主,电影应该很好看我觉得中国高清电影网真是个好地方!
VIP会员免费任意下载本站所有资源!---点击开通
回复

使用道具 举报

级别:普通观众 Lv.2

注册时间
2019-6-28
最后登录
2019-11-19
听众
4
收听
0
主题
0
蓝光币
29 枚
贡献
0 点
发表于 2019-11-6 23:04:53 | 显示全部楼层
楼主发贴辛苦了,谢谢楼主分享!
VIP会员免费任意下载本站所有资源!---点击开通
回复

使用道具 举报

级别:一举成名 Lv.7

注册时间
2019-4-24
最后登录
2019-11-19
听众
13
收听
0
主题
0
蓝光币
197 枚
贡献
0 点
发表于 2019-11-7 08:17:51 | 显示全部楼层
楼主发贴辛苦了,谢谢楼主分享!我觉得中国高清电影网是注册对了!
VIP会员免费任意下载本站所有资源!---点击开通
回复

使用道具 举报

懒得打字嘛,点击右侧快捷回复 【右侧内容,后台自定义】
您需要登录后才可以回帖 登录 | 立即注册

本版积分规则

QQ|Archiver|手机版|小黑屋| 中国高清网 |网站地图

GMT+8, 2019-11-20 09:03 , Processed in 0.258403 second(s), 37 queries .

Powered by HDchina X3.4

Copyright 2017-2019©HDchina.All right reserved

返回顶部 联系我们