查看: 79|回复: 3

[动画片] 城市猎人:新宿 PRIVATE EYES City.Hunter.Shinjuku.Private.Eyes.2019.JAPANESE.720p.BluRay.X264-WiKi 4.00GB

[复制链接]

 成长值: 3210

级别:资源管理组

注册时间
2017-10-20
最后登录
2019-11-20
听众
1
收听
0
主题
87221
蓝光币
63028 枚
贡献
11580 点
发表于 2019-11-5 17:39:47 | 显示全部楼层 |阅读模式
p2565428359.jpg
6 l- D/ b& f4 b2 f4 H; y
( v9 t; n0 b* e5 Y# _译  名 城市猎人:新宿 PRIVATE EYES / City Hunter: Shinjuku Private Eyes / 城市猎人戏院版
# r+ c7 B; D3 X* a' P片  名 劇場版シティーハンター 新宿プライベート?アイズ5 m% |" I$ H8 l
年  代 2019, E! ?! ^( B9 c% l  }
产  地 日本" ]& j+ t+ C' j- f0 w7 o
类  别 笑剧 / 行动 / 动画1 w# X4 ~  A$ G
语  言 日语
8 M2 A& p  H' K6 P上映日期 2019-02-08(日本)
3 a0 l9 c; E  y$ |' i) f% AIMDb评分  7.0/10 from 104 users- C* e) `; ^7 p' \( A
IMDb链接  https://www.imdb.com/title/tt8161914
2 y( L' Y# o# B$ H" z/ W豆瓣评分 7.1/10 from 329 users3 u8 M; j" I% I# x  v& T
豆瓣链接 https://movie.douban.com/subject/30174393/8 U  M' O  x9 U0 {8 y8 ^' z) T
片  长 95分钟7 E5 u8 M  h) \
导  演 儿玉兼嗣 Kenji Kodama9 v5 l+ ?, K2 o7 m) j) W
编  剧 加藤阳一 Y?ichi Kat? / 北条司 Tsukasa H?j?
6 m) [2 Q/ k6 g8 B( p2 L3 z主  演 神谷明 Akira Kamiya
) P2 E7 y% ~& s. w       伊仓一惠 Kazue Ikura
  ]6 ?3 W) i( r4 o) @- `1 j       饭丰万理江 Marie Iitoyo% U% V2 n* J) s; O7 j) ^: \
       山寺宏一 K?ichi Yamadera& |( O; o" M& F3 v: P' b" t
       麻上洋子 Y?ko Asagami  w! M5 t0 E/ O! w2 T/ z# X) b1 ]
       玄田哲章 Tessh? Genda
2 w8 C5 b- C1 N- t1 y  k       小山茉美 Mami Koyama$ |( I, g5 f9 I' e
       大塚芳忠 H?ch? ?tsuka
; b5 _$ p( U5 E! g2 q, g9 d; y       德井义实 Yoshimi Tokui
  a: L7 G4 t/ e) t       户田惠子 Keiko Toda7 J" }& E6 L0 d) v( d* J* b
       坂本千夏 Chika Sakamoto
$ N4 J0 E0 m, W) ~& S1 x" T2 C( Y' j
7 b+ I2 {% D. o' K, s0 R/ R. c7 g- Z( {" a- s2 Q& N+ I
标  签 城市猎人 | 日本 | 北条司 | 动画 | 戏院版 | 日本动画 | 2019 | 典范
. l' \) k( w& F9 ~2 K# s, r+ G; w) W6 e% I
简  介  & G  a# o0 j4 N  O  h
6 m: r3 |% S; d, R3 n
  北条司的典范动漫作品《城市猎人》戏院版建造决议!城市清道夫冴羽獠重出江湖!原版声优神谷明&伊仓一惠回归,《魔鬼腕表》系列的加藤阳一担任编剧,児玉谦次导演,影片将于2019春季上映。
; i- f0 u: @( T! R& _7 p- Y
  1. Video
    # }2 x+ I' h; P2 _! M$ h
  2. ID                                       : 1
    5 }: T# N1 @/ }/ z0 f0 [
  3. Format                                   : AVC3 r3 E; x( |" i
  4. Format/Info                              : Advanced Video Codec
    ; F2 _8 l' U# `! ^
  5. Format profile                           : High@L4
    6 h! @; o" T2 @8 ?  |) P0 A* S3 w
  6. Format settings                          : CABAC / 9 Ref Frames
    2 X) f% s4 t% n
  7. Format settings, CABAC                   : Yes2 l& [$ }, O- O2 V! X" D
  8. Format settings, Reference frames        : 9 frames
    5 _# O/ k8 |6 Y. P' F" x* f& Z
  9. Codec ID                                 : V_MPEG4/ISO/AVC
    3 ^0 r* G- d; s( o0 G) b$ @
  10. Duration                                 : 1 h 35 min/ Z# C+ c2 b7 C6 g: M% u
  11. Bit rate                                 : 5 344 kb/s9 P6 p' ]. G( N0 ^3 }# Q2 C
  12. Width                                    : 1 280 pixels
    : k, Y& d" a7 H2 l
  13. Height                                   : 720 pixels
    + G( H2 i- P. e' T5 J6 K
  14. Display aspect ratio                     : 16:9/ S+ |$ Y9 J& q0 ~0 G9 v4 g
  15. Frame rate mode                          : Constant
    0 D, m- Q! t5 L$ p0 g* |# j* m/ B" Z
  16. Frame rate                               : 23.976 (24000/1001) FPS
    , l" f; C3 J; ]2 D0 i
  17. Color space                              : YUV
    ( c& i, k% V5 g" p! @7 S
  18. Chroma subsampling                       : 4:2:0, s( K& n/ L3 ]/ q% Z( {, O, @
  19. Bit depth                                : 8 bits
    1 m: e5 J: s, F7 o. t
  20. Scan type                                : Progressive2 f/ P5 h' ?# ?+ l( A* J4 \3 [/ `. A0 J+ L
  21. Bits/(Pixel*Frame)                       : 0.242
    : D$ t9 F# X" w/ W
  22. Stream size                              : 3.57 GiB (89%)& T( W" P/ M$ {# r5 X+ l5 @
  23. Writing library                          : x264 core 129 r2245+704+36 8e61944 tMod+MixAQ [High@L4:2:0 X86_64]8 Q0 C; [9 l$ ?
  24. Encoding settings                        : cabac=1 / ref=9 / deblock=1:-3:-3 / analyse=0x3:0x133 / me=umh / subme=11 / psy=1 / fade_compensate=0.00 / psy_rd=1.00:0.00 / mixed_ref=1 / me_range=32 / chroma_me=1 / trellis=2 / 8x8dct=1 / cqm=0 / deadzone=21,11 / fast_pskip=0 / chroma_qp_offset=-2 / threads=18 / lookahead_threads=3 / sliced_threads=0 / nr=0 / decimate=0 / interlaced=0 / bluray_compat=0 / constrained_intra=0 / fgo=0 / bframes=10 / b_pyramid=2 / b_adapt=2 / b_bias=0 / direct=3 / weightb=1 / open_gop=0 / weightp=2 / keyint=250 / keyint_min=23 / scenecut=40 / intra_refresh=0 / rc=2pass / mbtree=0 / bitrate=5344 / ratetol=1.0 / qcomp=0.70 / qpmin=0 / qpmax=69 / qpstep=4 / cplxblur=20.0 / qblur=0.5 / ip_ratio=1.40 / pb_ratio=1.30 / aq=1 / aq-strength=0.90 / aq-sensitivity=10.00 / aq-ifactor=1.00 / aq-pfactor=1.00 / aq-bfactor=1.00 / aq2=0
    ( E( ~2 o! W' h
  25. Language                                 : Japanese5 r# G3 R5 ]+ r7 T1 x
  26. Default                                  : Yes
    3 |3 s' e" O$ K! Y" _
  27. Forced                                   : No
    % O+ f/ q. L) k  _$ W

  28. % D& r6 J* f0 A/ N
  29. Audio( H  D4 c# x  I3 a; }" v
  30. ID                                       : 21 B- g. C* ^5 u
  31. Format                                   : AC-3
    + q; Q8 ?0 e2 D2 g
  32. Format/Info                              : Audio Coding 3
    9 K) N- m5 u  n# `( o
  33. Commercial name                          : Dolby Digital1 ~1 G( a+ ]+ v7 W! g
  34. Codec ID                                 : A_AC3
    7 x. s! P0 A# l9 @+ {" Z
  35. Duration                                 : 1 h 35 min
    7 ~  m9 T# m6 u2 c7 s. H) t
  36. Bit rate mode                            : Constant: H' ~" o8 t: q2 A* C$ p- c9 o/ \: @
  37. Bit rate                                 : 640 kb/s  f0 v+ j( c2 Y4 W- {  r  r
  38. Channel(s)                               : 6 channels
    / m3 E7 b: v1 R
  39. Channel layout                           : L R C LFE Ls Rs
    + t+ ^) Y0 N) v& |* J& {8 o3 q
  40. Sampling rate                            : 48.0 kHz# P$ a" ^1 p- ~( U
  41. Frame rate                               : 31.250 FPS (1536 SPF)# q2 k+ R1 {  M3 k* z: g: M
  42. Bit depth                                : 16 bits  ?% z$ t& k0 R& Q2 i9 ]6 a: A; {
  43. Compression mode                         : Lossy# h  E2 t7 S" G2 g1 i
  44. Stream size                              : 438 MiB (11%)# }, b. j% ]: x0 N
  45. Language                                 : Japanese5 u  h, @. o. v7 Y* E4 O
  46. Service kind                             : Complete Main
    # f& h, g, |  f- {$ c, P
  47. Default                                  : Yes! N  ^4 j/ _& l, P9 g
  48. Forced                                   : No
    4 }7 f& T; r- e3 `

  49. 2 ?, @9 e( U% n6 l. n: k
  50. Text #1
    & l; I" b7 U3 A
  51. ID                                       : 3$ H! U. t1 U5 ~9 O9 b
  52. Format                                   : UTF-8
    * r' T3 z& O" J7 V9 ?: w' g" U% U
  53. Codec ID                                 : S_TEXT/UTF8
    1 \- r6 x; c7 D2 b4 d" c3 i/ Q
  54. Codec ID/Info                            : UTF-8 Plain Text: s# y/ z& e1 F! H
  55. Duration                                 : 1 h 35 min
    # [" h! \/ x7 ^5 R* F: v
  56. Bit rate                                 : 46 b/s- F) A- r+ R# H5 D: B# R4 b
  57. Count of elements                        : 1335
    - o' y+ K# N, N; R4 `. q
  58. Stream size                              : 32.7 KiB (0%)& d' v' A4 Y4 K' ]) \
  59. Language                                 : English
    7 b: f( V" m- E6 @2 }$ C
  60. Default                                  : No
    1 n6 S$ T  H: {9 }
  61. Forced                                   : No
    : }- P# W' N( L* u# u3 Z; J

  62. $ I, S0 O; j8 F0 r# C( X
  63. Text #28 D: P# B1 x8 z
  64. ID                                       : 4; k3 |& N8 D! M% J9 u
  65. Format                                   : ASS) H5 o5 b. u$ l/ A
  66. Codec ID                                 : S_TEXT/ASS
    4 ]5 s6 E% N1 @5 ^6 s  G4 T6 @
  67. Codec ID/Info                            : Advanced Sub Station Alpha
    $ t" b  @+ e4 }' q5 h  I5 {
  68. Duration                                 : 1 h 34 min, T0 t6 Z1 `% f4 X7 W
  69. Bit rate                                 : 82 b/s
    + z( [* c, a7 X/ |
  70. Count of elements                        : 13138 p6 W4 Y) _9 E( t% u& F9 f1 `
  71. Compression mode                         : Lossless) @5 o- H5 P* t& s
  72. Stream size                              : 57.4 KiB (0%)
    + v* ]4 u% \9 p4 D# O
  73. Title                                    : Simplified2 m( r& {& N1 Y$ |. W- x
  74. Language                                 : Chinese: r* J& f# B# m/ H% a( a) d
  75. Default                                  : Yes
    ! b4 M1 `% g) L  s9 y* s" V
  76. Forced                                   : No
    4 J0 j  n6 R' U( u/ l# A

  77. & S# z: }+ f5 E( ?/ _1 O
  78. Text #3& ?6 [6 c4 f  m& w
  79. ID                                       : 5/ \8 f8 }* F; d4 L8 w
  80. Format                                   : ASS
      @4 d4 m8 m7 U/ \7 J# w
  81. Codec ID                                 : S_TEXT/ASS* h- j, D, V! {2 P
  82. Codec ID/Info                            : Advanced Sub Station Alpha
    / y: G" W8 v/ X7 @% f
  83. Duration                                 : 1 h 34 min
    ; T5 l5 w1 a& Q. X: d0 T
  84. Bit rate                                 : 82 b/s
    1 y2 @) I4 k" Q% t
  85. Count of elements                        : 1313
    + \$ E2 q  u% }( b$ K1 j
  86. Compression mode                         : Lossless4 M! E6 @; Y' D4 F) [0 j
  87. Stream size                              : 57.4 KiB (0%)9 [% c  L1 T9 s3 ~
  88. Title                                    : Traditional. ~# G5 v* J$ N1 F. ^
  89. Language                                 : Chinese  _6 ]1 ]' N, K: j1 X9 d
  90. Default                                  : No0 c) S' ?  Y7 n& z% o
  91. Forced                                   : No1 |7 d8 u9 Y6 T2 @

  92.   }1 _/ o$ Y- e6 @5 C, V
  93. Menu' r$ p! S0 k6 M) t8 ?' [* j2 `' O" @
  94. 00:00:00.000                             : en:第 01 章% u- i9 i7 K: a6 p2 K
  95. 00:00:17.016                             : en:第 02 章
      R" \, Y3 j# K+ }! E6 J$ K$ x
  96. 00:01:53.488                             : en:第 03 章
    ' q5 w" i( W1 ?, f5 d8 _; {4 i
  97. 00:02:57.552                             : en:第 04 章
    4 \# @4 `3 }" c0 l6 A$ O( v
  98. 00:14:11.976                             : en:第 05 章) y6 }7 O  \4 @) A
  99. 00:27:03.330                             : en:第 06 章
    ( J! M6 d$ [% u
  100. 00:35:05.978                             : en:第 07 章
    % l" d6 Z2 B& g
  101. 00:45:29.476                             : en:第 08 章
    9 M% F+ P  v1 J8 o6 S; X% K
  102. 00:59:20.974                             : en:第 09 章
    $ c6 Y/ ^3 ]& D: y
  103. 01:05:51.113                             : en:第 10 章4 P- F' V5 _: Y; P  A0 ^
  104. 01:19:14.666                             : en:第 11 章' a  x! g$ A* U8 n& y( J  p; K0 i" h
  105. 01:28:24.924                             : en:第 12 章
    4 ]; W& F, e: u: \
  106. 01:34:44.595                             : en:第 13 章
复制代码
$ y7 v0 c' p: T* p' g+ ^/ Z
城市猎人:新宿 PRIVATE EYES City.Hunter.Shinjuku.Private.Eyes.2019.JAPANESE.720p.BluRay.X264-WiKi 4.00GB-2.png 城市猎人:新宿 PRIVATE EYES City.Hunter.Shinjuku.Private.Eyes.2019.JAPANESE.720p.BluRay.X264-WiKi 4.00GB-3.png 城市猎人:新宿 PRIVATE EYES City.Hunter.Shinjuku.Private.Eyes.2019.JAPANESE.720p.BluRay.X264-WiKi 4.00GB-4.png
% f9 H# W8 _( D  ]" j& g( ~8 c6 u! M, ~( O% M6 X% Q' V7 z

9 N! ~& N' G5 R+ q$ n4 m' W+ e: F( N2 E
- F3 h. S' d8 ^! g3 R
  k9 G5 ^, o/ Y: t

, ^' m/ l) N' m/ l0 `
VIP会员免费任意下载本站所有资源!---点击开通
回复

使用道具 举报

级别:专业龙套 Lv.4

注册时间
2019-4-11
最后登录
2019-11-20
听众
12
收听
0
主题
0
蓝光币
172 枚
贡献
0 点
发表于 2019-11-6 11:22:16 | 显示全部楼层

0 h+ x. H7 B: i8 p) i8 r楼主太厉害了!楼主,电影应该很好看我觉得中国高清电影网真是个好地方!
VIP会员免费任意下载本站所有资源!---点击开通
回复

使用道具 举报

级别:普通观众 Lv.2

注册时间
2019-6-28
最后登录
2019-11-19
听众
4
收听
0
主题
0
蓝光币
29 枚
贡献
0 点
发表于 2019-11-6 23:06:25 | 显示全部楼层
楼主发贴辛苦了,谢谢楼主分享!我觉得中国高清电影网是注册对了!
VIP会员免费任意下载本站所有资源!---点击开通
回复

使用道具 举报

级别:一举成名 Lv.7

注册时间
2019-4-24
最后登录
2019-11-19
听众
13
收听
0
主题
0
蓝光币
197 枚
贡献
0 点
发表于 2019-11-7 08:20:00 | 显示全部楼层
楼主发贴辛苦了,谢谢楼主分享!我觉得中国高清电影网是注册对了!
VIP会员免费任意下载本站所有资源!---点击开通
回复

使用道具 举报

懒得打字嘛,点击右侧快捷回复 【右侧内容,后台自定义】
您需要登录后才可以回帖 登录 | 立即注册

本版积分规则

QQ|Archiver|手机版|小黑屋| 中国高清网 |网站地图

GMT+8, 2019-11-20 10:02 , Processed in 0.250538 second(s), 37 queries .

Powered by HDchina X3.4

Copyright 2017-2019©HDchina.All right reserved

返回顶部 联系我们