查看: 77|回复: 2

[剧情片] 曼陀罗 Mandara.1971.1080p.BluRay.x264-GHOULS 8.75GB

[复制链接]

 成长值: 3160

级别:资源管理组

注册时间
2017-10-20
最后登录
2019-11-11
听众
1
收听
0
主题
86761
蓝光币
61813 枚
贡献
11119 点
发表于 2019-11-4 20:55:30 | 显示全部楼层 |阅读模式
曼陀罗 Mandara.1971.1080p.BluRay.x264-GHOULS 8.75GB-1.png

译  名 曼陀罗 / Mandara
片  名 曼陀羅
年  代 1971
产  地 日本
类  别 剧情
语  言 日语
上映日期 1971
IMDb评分  6.9/10 from 197 users
IMDb链接  https://www.imdb.com/title/tt0229553
豆瓣评分 6.4/10 from 470 users
豆瓣链接 https://movie.douban.com/subject/1417997/
片  长 135分钟
导  演 实相寺昭雄 Akio Jissoji
编  剧 石堂淑朗 Toshir? Ishid?
主  演 岸田森 Shin Kishida
       清水綋治 K?ji Shimizu
       樱井浩子 Hiroko Sakurai
       田村亮 Ryo Tamura


标  签 日本 | 情色 | 実相寺昭雄 | 日本电影 | 实相寺昭雄 | 1971 | 尝试 | 曼陀羅

简  介  

  在郭贺海边的汽车旅店,两对情人——信一(清水宏治 饰)和由纪子(森秋子 饰)、阿裕(田村亮 饰)和康子(樱井浩子 饰)玩起了疯狂的换妻游戏,而这一切,都被旅店司理真木(岸田森 饰)经过房间内的摄像头一览无余。送走朋友后,信一和由纪子安步海滩,遭到了真木手下的狙击,昏迷中的二人却体验到史无前例的兴趣。
  未几后康子怀孕,她希望能与阿裕成婚,但沉迷于右翼妹生活动的男友却对婚姻提不起半点爱好。而心中存有疑问的信一和由纪子再次造访汽车旅店,真木则将两人带入一个藏匿于森林中的奇异的乌托邦社会……
  1. Video
  2. ID                                       : 1
  3. Format                                   : AVC
  4. Format/Info                              : Advanced Video Codec
  5. Format profile                           : High@L4
  6. Format settings                          : CABAC / 4 Ref Frames
  7. Format settings, CABAC                   : Yes
  8. Format settings, Reference frames        : 4 frames
  9. Codec ID                                 : V_MPEG4/ISO/AVC
  10. Duration                                 : 2 h 15 min
  11. Bit rate                                 : 8 517 kb/s
  12. Width                                    : 1 920 pixels
  13. Height                                   : 1 040 pixels
  14. Display aspect ratio                     : 1.85:1
  15. Frame rate mode                          : Constant
  16. Frame rate                               : 23.976 (24000/1001) FPS
  17. Color space                              : YUV
  18. Chroma subsampling                       : 4:2:0
  19. Bit depth                                : 8 bits
  20. Scan type                                : Progressive
  21. Bits/(Pixel*Frame)                       : 0.178
  22. Stream size                              : 8.06 GiB (92%)
  23. Writing library                          : x264 core 158 r2984 3759fcb
  24. Encoding settings                        : cabac=1 / ref=4 / deblock=1:-3:-3 / analyse=0x3:0x133 / me=umh / subme=9 / psy=1 / psy_rd=1.00:0.00 / mixed_ref=1 / me_range=24 / chroma_me=1 / trellis=1 / 8x8dct=1 / cqm=0 / deadzone=21,11 / fast_pskip=0 / chroma_qp_offset=-2 / threads=24 / lookahead_threads=4 / sliced_threads=0 / nr=0 / decimate=1 / interlaced=0 / bluray_compat=0 / constrained_intra=0 / bframes=8 / b_pyramid=2 / b_adapt=2 / b_bias=0 / direct=3 / weightb=1 / open_gop=0 / weightp=2 / keyint=250 / keyint_min=23 / scenecut=40 / intra_refresh=0 / rc_lookahead=60 / rc=2pass / mbtree=1 / bitrate=8517 / ratetol=1.0 / qcomp=0.60 / qpmin=0 / qpmax=69 / qpstep=4 / cplxblur=20.0 / qblur=0.5 / vbv_maxrate=62500 / vbv_bufsize=78125 / nal_hrd=none / filler=0 / ip_ratio=1.40 / aq=1:1.00
  25. Default                                  : Yes
  26. Forced                                   : No

  27. Audio
  28. ID                                       : 2
  29. Format                                   : FLAC
  30. Format/Info                              : Free Lossless Audio Codec
  31. Codec ID                                 : A_FLAC
  32. Duration                                 : 2 h 15 min
  33. Bit rate mode                            : Variable
  34. Bit rate                                 : 725 kb/s
  35. Channel(s)                               : 1 channel
  36. Channel layout                           : C
  37. Sampling rate                            : 48.0 kHz
  38. Frame rate                               : 10.417 FPS (4608 SPF)
  39. Bit depth                                : 24 bits
  40. Compression mode                         : Lossless
  41. Stream size                              : 703 MiB (8%)
  42. Writing library                          : Lavf58.29.100
  43. Language                                 : Japanese
  44. Default                                  : Yes
  45. Forced                                   : No

  46. Text
  47. ID                                       : 3
  48. Format                                   : UTF-8
  49. Codec ID                                 : S_TEXT/UTF8
  50. Codec ID/Info                            : UTF-8 Plain Text
  51. Duration                                 : 2 h 15 min
  52. Bit rate                                 : 25 b/s
  53. Count of elements                        : 698
  54. Stream size                              : 25.1 KiB (0%)
  55. Language                                 : English
  56. Default                                  : Yes
  57. Forced                                   : No
复制代码

曼陀罗 Mandara.1971.1080p.BluRay.x264-GHOULS 8.75GB-2.png







VIP会员免费任意下载本站所有资源!---点击开通
回复

使用道具 举报

级别:普通观众 Lv.2

注册时间
2019-11-4
最后登录
2019-11-13
听众
0
收听
0
主题
0
蓝光币
10 枚
贡献
0 点
发表于 2019-11-5 08:37:33 | 显示全部楼层

这东西我收了!谢谢楼主!中国高清电影网真好!
VIP会员免费任意下载本站所有资源!---点击开通
回复

使用道具 举报

级别:荣升主角 Lv.5

注册时间
2019-1-17
最后登录
2019-11-14
听众
15
收听
0
主题
0
蓝光币
346 枚
贡献
0 点
QQ
发表于 2019-11-5 16:55:22 | 显示全部楼层

这个帖子不回对不起自己!我想我是一天也不能离开中国高清电影网
VIP会员免费任意下载本站所有资源!---点击开通
回复

使用道具 举报

懒得打字嘛,点击右侧快捷回复 【右侧内容,后台自定义】
您需要登录后才可以回帖 登录 | 立即注册

本版积分规则

QQ|Archiver|手机版|小黑屋| 中国高清网 |网站地图 

GMT+8, 2019-11-15 07:44 , Processed in 0.226106 second(s), 38 queries .

Powered by HDchina X3.4

Copyright 2017-2019©HDchina.All right reserved

返回顶部 联系我们