查看: 98|回复: 2

[剧情片] 曼陀罗 Mandara.1971.720p.BluRay.x264-GHOULS 5.47GB

[复制链接]

 成长值: 5530

级别:资源管理组

注册时间
2017-10-20
最后登录
2020-6-3
听众
1
收听
0
主题
96338
蓝光币
154771 枚
贡献
20716 点
发表于 2019-11-4 20:54:40 | 显示全部楼层 |阅读模式
曼陀罗 Mandara.1971.720p.BluRay.x264-GHOULS 5.47GB-1.png
/ `, G* x" M$ c. v. }" O  ^: P* S6 ]' S2 Y7 N* Y
译  名 曼陀罗 / Mandara
, D0 z; ~8 K7 b2 H5 d# b$ a片  名 曼陀羅
) E, Y) h. L& i* p年  代 19715 _( T* ^0 A& C, C- b1 }9 Q3 W
产  地 日本: }' ~! e0 J+ y4 O4 Y5 N/ {" c
类  别 剧情
! |: @8 W% @, }语  言 日语8 g9 p3 w& v6 |9 x  x( |, |0 W
上映日期 1971
2 x# B" V$ B$ i* OIMDb评分  6.9/10 from 197 users
5 E3 _/ L1 i3 D9 `) y( CIMDb链接  https://www.imdb.com/title/tt0229553" \  G. g! o3 J  I9 L0 V
豆瓣评分 6.4/10 from 470 users0 `# J+ l$ s0 ~; S" X# [! p
豆瓣链接 https://movie.douban.com/subject/1417997/$ Z* g$ n) t) R6 p1 y" i2 n  l; E
片  长 135分钟# L3 D. R! W! y# e& t4 C! [; F) I
导  演 实相寺昭雄 Akio Jissoji
$ X. `6 e. s+ }2 M  y# [  t6 k1 r. i编  剧 石堂淑朗 Toshir? Ishid?# g# N- J. x8 C" I) n# g
主  演 岸田森 Shin Kishida0 |8 p! C7 w4 H4 `
       清水綋治 K?ji Shimizu
( H$ z; Y# Z( m9 a       樱井浩子 Hiroko Sakurai
( f7 O0 T' r, a9 R6 P       田村亮 Ryo Tamura2 x! j2 z  k1 a

, l' l0 i8 H8 D0 }
' A4 _1 G1 v. o6 j0 F1 x: [标  签 日本 | 情色 | 実相寺昭雄 | 日本电影 | 实相寺昭雄 | 1971 | 尝试 | 曼陀羅' M3 M+ `1 ~0 V- K; d1 o8 I, B

0 T2 [  f) |. |; b简  介  0 t& E, L# @- `$ y( W8 A

& e) p( W. f0 u( m' T  在郭贺海边的汽车旅店,两对情人——信一(清水宏治 饰)和由纪子(森秋子 饰)、阿裕(田村亮 饰)和康子(樱井浩子 饰)玩起了疯狂的换妻游戏,而这一切,都被旅店司理真木(岸田森 饰)经过房间内的摄像头一览无余。送走朋友后,信一和由纪子安步海滩,遭到了真木手下的狙击,昏迷中的二人却体验到史无前例的兴趣。% _& b* B$ N& \2 K2 ~
  未几后康子怀孕,她希望能与阿裕成婚,但沉迷于右翼妹生活动的男友却对婚姻提不起半点爱好。而心中存有疑问的信一和由纪子再次造访汽车旅店,真木则将两人带入一个藏匿于森林中的奇异的乌托邦社会……
8 M* a5 i& V9 E0 l4 M0 D
  1. Video
    9 v  d4 @; P. G3 A& x2 e$ q  T
  2. ID                                       : 1
    5 q* S9 D! T: z7 A1 a4 ^, [
  3. Format                                   : AVC
    ; H) m* B  o7 C* s
  4. Format/Info                              : Advanced Video Codec% t7 i5 r* g) K
  5. Format profile                           : High@L4! [/ i4 ]3 L9 ~3 v0 n3 \3 h7 K
  6. Format settings                          : CABAC / 9 Ref Frames/ \9 w4 c% R1 J5 Z' E3 Y
  7. Format settings, CABAC                   : Yes
    5 O) N  q! J5 B
  8. Format settings, Reference frames        : 9 frames
    7 V' d+ b0 V6 j
  9. Codec ID                                 : V_MPEG4/ISO/AVC/ M7 S; \" f' Y! l
  10. Duration                                 : 2 h 15 min+ a! Q6 o7 E0 Q" \& s; E
  11. Bit rate                                 : 5 049 kb/s
    9 Z$ C- l0 }, ]
  12. Width                                    : 1 280 pixels: g& K: I% M) R2 E$ w+ ]
  13. Height                                   : 696 pixels6 w  q3 Z: |3 M) E) I3 D, o
  14. Display aspect ratio                     : 1.85:1
    ( W1 Z$ Q8 ^; c3 @, `' L6 m
  15. Frame rate mode                          : Constant
      ^5 T  M1 g: y# r' u1 U
  16. Frame rate                               : 23.976 (24000/1001) FPS$ g. y" d- ~! }/ S
  17. Color space                              : YUV
    7 j, R  A* n5 H
  18. Chroma subsampling                       : 4:2:0
    , d% u% o. C4 R6 h- E
  19. Bit depth                                : 8 bits
      G3 z7 g# I! s% M5 D; s0 W) d
  20. Scan type                                : Progressive
    / s* m7 s6 W9 x3 S& _3 r7 t; a8 {
  21. Bits/(Pixel*Frame)                       : 0.236
    % @# C* c- t9 Q0 f7 ?. g: j
  22. Stream size                              : 4.78 GiB (87%)
    , U! @8 \+ H; {3 o
  23. Writing library                          : x264 core 158 r2984 3759fcb
    : f% s& A+ t8 m$ L7 f3 @2 p  ~6 T
  24. Encoding settings                        : cabac=1 / ref=9 / deblock=1:-3:-3 / analyse=0x3:0x133 / me=umh / subme=9 / psy=1 / psy_rd=1.00:0.00 / mixed_ref=1 / me_range=24 / chroma_me=1 / trellis=1 / 8x8dct=1 / cqm=0 / deadzone=21,11 / fast_pskip=0 / chroma_qp_offset=-2 / threads=22 / lookahead_threads=3 / sliced_threads=0 / nr=0 / decimate=1 / interlaced=0 / bluray_compat=0 / constrained_intra=0 / bframes=8 / b_pyramid=2 / b_adapt=2 / b_bias=0 / direct=3 / weightb=1 / open_gop=0 / weightp=2 / keyint=250 / keyint_min=23 / scenecut=40 / intra_refresh=0 / rc_lookahead=60 / rc=2pass / mbtree=1 / bitrate=5049 / ratetol=1.0 / qcomp=0.60 / qpmin=0 / qpmax=69 / qpstep=4 / cplxblur=20.0 / qblur=0.5 / vbv_maxrate=62500 / vbv_bufsize=78125 / nal_hrd=none / filler=0 / ip_ratio=1.40 / aq=1:1.00' m# K2 N5 g# z, s4 F; Z
  25. Default                                  : Yes
    5 i1 l7 g( ]' X6 h
  26. Forced                                   : No
    * d+ O4 K, ~4 x7 e2 Z. ^
  27. ( {) ?9 _4 e* {( k' n
  28. Audio& Y3 |: b& J* H- C7 k
  29. ID                                       : 2* t' \, f5 E5 M- P: e" k
  30. Format                                   : FLAC
    4 C$ n  k2 ]0 u
  31. Format/Info                              : Free Lossless Audio Codec1 E+ Y9 o, M: ~. ^0 `) b% q! J  _$ f
  32. Codec ID                                 : A_FLAC
    ) B' u6 G" v2 [0 H; [2 w/ s
  33. Duration                                 : 2 h 15 min# K9 }4 S( H' x, t* y
  34. Bit rate mode                            : Variable, D' v8 [; z8 L' Q4 H2 v
  35. Bit rate                                 : 725 kb/s
    1 f. f8 A2 a' B2 Y3 A
  36. Channel(s)                               : 1 channel
    . F# w% O0 b9 _. p& @1 z
  37. Channel layout                           : C
    % {, H3 E& `9 [4 O( R" ]
  38. Sampling rate                            : 48.0 kHz
    . z0 Q3 U6 \% s
  39. Frame rate                               : 10.417 FPS (4608 SPF), B& L$ `0 v( ^( n. O& A$ Q7 a
  40. Bit depth                                : 24 bits
    + W/ F8 I6 U# K+ x6 A
  41. Compression mode                         : Lossless
    ( c5 c' r5 r9 v2 x5 Z2 n! T
  42. Stream size                              : 703 MiB (13%)( m1 l/ a! b" k) \
  43. Writing library                          : Lavf58.29.100
    : L; w9 {3 l9 \" O
  44. Language                                 : Japanese
    3 Q6 e' {9 U/ [+ m1 s1 s
  45. Default                                  : Yes' c2 M  B( q2 b1 j
  46. Forced                                   : No) v) }* b, m! x2 N" r5 v3 k

  47. 3 e4 P0 j% u7 c% j, i
  48. Text
    ' R% ^; M5 D/ V- E# M/ H
  49. ID                                       : 3
    ; d4 m/ [! s) g
  50. Format                                   : UTF-8
    1 H* f. m+ O. p
  51. Codec ID                                 : S_TEXT/UTF8
    % Z9 d6 i: V: r% W& j
  52. Codec ID/Info                            : UTF-8 Plain Text
    3 o1 A, B2 [1 B
  53. Duration                                 : 2 h 15 min% W; R3 Y- I6 @2 g2 p; k9 h
  54. Bit rate                                 : 25 b/s' A" G4 t$ e1 J' x0 F' ]
  55. Count of elements                        : 698
    & v5 C* q! T% K, \4 A  ]
  56. Stream size                              : 25.1 KiB (0%)
    + n. x0 \" F( c& k5 S8 z
  57. Language                                 : English
    6 M# D" \1 T3 w' b' l2 f1 X1 J6 z
  58. Default                                  : Yes' I2 j4 c7 L5 j  P, q# a; j
  59. Forced                                   : No
复制代码

8 W* z9 c# N" H/ n 曼陀罗 Mandara.1971.720p.BluRay.x264-GHOULS 5.47GB-2.png
+ H7 a7 }9 d0 s
6 T4 `% U+ [& K6 Z  Q
5 e9 ]7 ]) z. |
7 l# F( K* A+ l- ?
9 F' I4 X$ j% }  F$ A, `0 }- d+ @* y( v2 ]' Z

2 m7 ^$ n8 w/ I7 ^  t: m- Y/ O3 L' J2 r: d) r+ @
回复

使用道具 举报

级别:荣升主角 Lv.5

注册时间
2019-4-11
最后登录
2020-6-3
听众
14
收听
0
主题
0
蓝光币
283 枚
贡献
0 点
发表于 2019-11-5 09:42:23 | 显示全部楼层

7 X4 k0 M# V' f* ^, K0 T. {楼主太厉害了!楼主,电影应该很好看我觉得中国高清电影网真是个好地方!
回复

使用道具 举报

级别:功成名就 Lv.9

注册时间
2019-4-24
最后登录
2020-6-3
听众
14
收听
0
主题
0
蓝光币
541 枚
贡献
0 点
发表于 2019-11-7 08:20:32 | 显示全部楼层
楼主发贴辛苦了,谢谢楼主分享!我觉得中国高清电影网是注册对了!
回复

使用道具 举报

懒得打字嘛,点击右侧快捷回复 【右侧内容,后台自定义】
您需要登录后才可以回帖 登录 | 立即注册

本版积分规则

Archiver|手机版|小黑屋| 中国高清网 ( ICP备17007870号-2 ) |网站地图 

GMT+8, 2020-6-3 21:46 , Processed in 0.146272 second(s), 38 queries .

Powered by HDchina X3.4

Copyright 2017-2019©HDchina.All right reserved

返回顶部 联系我们