查看: 91|回复: 2

[剧情片] 薇塔与弗吉尼亚/薇塔和维吉尼亚 Vita.and.Virginia.2018.1080p.BluRay.X264-AMIABLE 7.65GB

[复制链接]

 成长值: 3160

级别:资源管理组

注册时间
2017-10-20
最后登录
2019-11-11
听众
1
收听
0
主题
86761
蓝光币
61861 枚
贡献
11119 点
发表于 2019-11-4 17:15:30 | 显示全部楼层 |阅读模式
薇塔与弗吉尼亚/薇塔和维吉尼亚 Vita.and.Virginia.2018.1080p.BluRay.X264-AMIABLE 7.65GB-1.png

译  名 薇塔与弗吉尼亚 / 薇塔和维吉尼亚
片  名 Vita and Virginia
年  代 2018
产  地 英国
类  别 剧情 / 恋爱 / 同性 / 列传
语  言 英语
上映日期 2018-09-11(多伦多电影节) / 2019-08-23(美国)
IMDb评分  5.4/10 from 403 users
IMDb链接  http://www.imdb.com/title/tt5859882
豆瓣评分 6.8/10 from 71 users
豆瓣链接 https://movie.douban.com/subject/26322767/
片  长 110分钟
导  演 钱亚·波顿 Chanya Button
编  剧 艾琳·阿特金斯 Eileen Atkins / 弗吉尼亚·伍尔芙 Virginia Woolf / Vita Sackville-West
主  演 杰玛·阿特登 Gemma Arterton
       伊丽莎白·德比茨基 Elizabeth Debicki
       伊莎贝拉·罗西里尼 Isabella Rossellini
       鲁伯特·彭利-琼斯 Rupert Penry-Jones
       彼得·费迪南多 Peter Ferdinando


标  签 英国 | 列传 | LGBT | VirginiaWoolf | 英国电影 | 同性 | Les | 恋爱

简  介  

  影片布景设定在20年月的伦敦,剧情将会聚焦伍尔芙与韦斯特之间的情事:弗吉尼亚·史蒂芬1912年嫁给伦纳德·伍尔夫,接着碰见了上流社会人士兼作家薇塔·萨克维尔·韦斯特——哈罗德·尼科尔森的妻子。自1922始,她们开启了一段长达十年的爱情,并保持着性关系,互通了很多情书和日志。在她们的爱情终结以后,两人仍连结着杰出的朋友关系,直到1941年伍尔芙归天。
  这将是Chanya Button自2015年《Burn Burn Burn》以后执导的第二部剧情长片,艾琳·阿特金斯编写剧本,按照她出演的同名舞台剧(1993年初次在伦敦上演,1994年登陆百老汇)改编,还会基于伍尔芙和韦斯特之间的情书停止创作。伊娃·格林和安德丽亚·瑞斯波罗格此前曾打仗过伍尔芙这个脚色,后相继退出。导演称这是一部“新颖刺激,布满缔造力、豪情与性欲”的影片。其他卡司包括伊莎贝拉·罗西里尼、鲁伯特·彭利·琼斯、彼得·费迪南多,9月爱尔兰开拍。
  1. Video
  2. ID                                       : 1
  3. Format                                   : AVC
  4. Format/Info                              : Advanced Video Codec
  5. Format profile                           : High@L4
  6. Format settings                          : CABAC / 4 Ref Frames
  7. Format settings, CABAC                   : Yes
  8. Format settings, Reference frames        : 4 frames
  9. Codec ID                                 : V_MPEG4/ISO/AVC
  10. Duration                                 : 1 h 49 min
  11. Bit rate                                 : 8 450 kb/s
  12. Width                                    : 1 920 pixels
  13. Height                                   : 1 040 pixels
  14. Display aspect ratio                     : 1.85:1
  15. Frame rate mode                          : Constant
  16. Frame rate                               : 24.000 FPS
  17. Color space                              : YUV
  18. Chroma subsampling                       : 4:2:0
  19. Bit depth                                : 8 bits
  20. Scan type                                : Progressive
  21. Bits/(Pixel*Frame)                       : 0.176
  22. Stream size                              : 6.34 GiB (83%)
  23. Writing library                          : x264 core 158 r2984 3759fcb
  24. Encoding settings                        : cabac=1 / ref=4 / deblock=1:-3:-3 / analyse=0x3:0x113 / me=umh / subme=8 / psy=1 / psy_rd=1.00:0.00 / mixed_ref=1 / me_range=32 / chroma_me=1 / trellis=2 / 8x8dct=1 / cqm=0 / deadzone=21,11 / fast_pskip=1 / chroma_qp_offset=-2 / threads=32 / lookahead_threads=5 / sliced_threads=0 / nr=0 / decimate=1 / interlaced=0 / bluray_compat=0 / constrained_intra=0 / bframes=3 / b_pyramid=2 / b_adapt=2 / b_bias=0 / direct=3 / weightb=1 / open_gop=0 / weightp=2 / keyint=240 / keyint_min=24 / scenecut=40 / intra_refresh=0 / rc_lookahead=50 / rc=2pass / mbtree=1 / bitrate=8450 / ratetol=1.0 / qcomp=0.60 / qpmin=0 / qpmax=69 / qpstep=4 / cplxblur=20.0 / qblur=0.5 / ip_ratio=1.40 / aq=3:0.80
  25. Default                                  : Yes
  26. Forced                                   : No
  27. Statistics Tags Issue                    : no_variable_data 1970-01-01 00:00:00 / no_variable_data 2010-02-22 21:41:29
  28. FromStats_BitRate                        : 8446514
  29. FromStats_Duration                       : 01:49:58.042000000
  30. FromStats_FrameCount                     : 158353
  31. FromStats_StreamSize                     : 6966307326

  32. Audio
  33. ID                                       : 2
  34. Format                                   : DTS
  35. Format/Info                              : Digital Theater Systems
  36. Codec ID                                 : A_DTS
  37. Duration                                 : 1 h 49 min
  38. Bit rate mode                            : Constant
  39. Bit rate                                 : 1 509 kb/s
  40. Channel(s)                               : 6 channels
  41. Channel layout                           : C L R Ls Rs LFE
  42. Sampling rate                            : 48.0 kHz
  43. Frame rate                               : 93.750 FPS (512 SPF)
  44. Bit depth                                : 24 bits
  45. Compression mode                         : Lossy
  46. Stream size                              : 1.16 GiB (15%)
  47. Language                                 : English
  48. Default                                  : Yes
  49. Forced                                   : No
  50. Statistics Tags Issue                    : no_variable_data 1970-01-01 00:00:00 / no_variable_data 2010-02-22 21:41:29
  51. FromStats_BitRate                        : 1509000
  52. FromStats_Duration                       : 01:49:57.024000000
  53. FromStats_FrameCount                     : 618471
  54. FromStats_StreamSize                     : 1244363652

  55. Menu
  56. 00:00:00.000                             : en:Chapter 01
  57. 00:06:55.333                             : en:Chapter 02
  58. 00:13:37.333                             : en:Chapter 03
  59. 00:22:19.875                             : en:Chapter 04
  60. 00:34:17.292                             : en:Chapter 05
  61. 00:48:27.250                             : en:Chapter 06
  62. 01:00:35.083                             : en:Chapter 07
  63. 01:05:07.292                             : en:Chapter 08
  64. 01:13:20.875                             : en:Chapter 09
  65. 01:29:31.167                             : en:Chapter 10
  66. 01:36:08.042                             : en:Chapter 11
  67. 01:44:28.292                             : en:Chapter 12
复制代码

薇塔与弗吉尼亚/薇塔和维吉尼亚 Vita.and.Virginia.2018.1080p.BluRay.X264-AMIABLE 7.65GB-2.png






VIP会员免费任意下载本站所有资源!---点击开通
回复

使用道具 举报

级别:专业龙套 Lv.4

注册时间
2019-3-6
最后登录
2019-11-14
听众
15
收听
0
主题
0
蓝光币
432 枚
贡献
0 点
发表于 2019-11-4 18:38:54 | 显示全部楼层
还是生肉吧???
VIP会员免费任意下载本站所有资源!---点击开通
回复

使用道具 举报

级别:荣升主角 Lv.5

注册时间
2018-2-26
最后登录
2019-11-15
听众
15
收听
0
主题
0
蓝光币
276 枚
贡献
0 点
发表于 2019-11-5 09:57:18 | 显示全部楼层

论坛不能没有像楼主这样的人才啊!我会一直支持中国高清电影网
VIP会员免费任意下载本站所有资源!---点击开通
回复

使用道具 举报

懒得打字嘛,点击右侧快捷回复 【右侧内容,后台自定义】
您需要登录后才可以回帖 登录 | 立即注册

本版积分规则

QQ|Archiver|手机版|小黑屋| 中国高清网 |网站地图 

GMT+8, 2019-11-15 11:05 , Processed in 0.237213 second(s), 37 queries .

Powered by HDchina X3.4

Copyright 2017-2019©HDchina.All right reserved

返回顶部 联系我们