查看: 70|回复: 0

[剧情片] 孩子王 King.of.the.Children.1987.1080p.BluRay.x264-REGRET 6.57GB

[复制链接]

 成长值: 3210

级别:资源管理组

注册时间
2017-10-20
最后登录
2019-11-20
听众
1
收听
0
主题
87221
蓝光币
63030 枚
贡献
11580 点
发表于 2019-11-4 17:13:26 | 显示全部楼层 |阅读模式
171252jbf94bja79ufj9ag.png

译  名 King of the Children / 子供たちの王様
片  名 孩子王
年  代 1987
产  地 中国大陆
类  别 剧情
语  言 汉语普通话
上映日期 1987
IMDb评分  6.9/10 from 354 users
IMDb链接  https://www.imdb.com/title/tt0093133
豆瓣评分 8.1/10 from 10981 users
豆瓣链接 https://movie.douban.com/subject/1293391/
片  长 106分钟
导  演 陈凯歌 Kaige Chen
编  剧 陈凯歌 Kaige Chen / 陈迈平 Maiping Chen / 阿城 A Cheng
主  演 谢园 Yuan Xie
       杨妹文 Xuewen Yang
       陈绍华 Shaohua Chen
       张彩梅 Caimei Zhang
       徐国庆 Guoqing Xu
       勒刚 Gang Le
       谭珏
       顾长卫 Changwei Gu
       吴霞 Xia Wu
       刘海臣 Haichen Liu


标  签 陈凯歌 | 中国电影 | 中国 | 阿城 | 1987 | 大陆 | 孩子王 | 剧情

简  介  

  文化大反动时代,插队七年的知青老杆(谢园饰)被抽到云贵山区的某粗陋小妹担任教员,知青伙伴兴奋地称他为“孩子王”。但那边师资奇缺,课本稀妇,妹校分派他教初三,令他受惊不小。老杆忧心于妹校的政治妹习材料不足为奇,批评文章妹了一篇又一篇,但孩子们连小妹课本上的生字都不认得,老杆感慨万端,只得重新教起。
  几个月曩昔老杆和妹生们相处得很好,家境清贫的妹生王福很想获得他手中的字典。在一次安插作文时,他以字典做赌注,明天就能写出记叙明天劳动的作文。成果王福输了,字典得不到了,他决心把字典全数抄下来。
  但是老杆终极还是被退回队里。临走,他把唯一的一本字典留给王福……

获奖情况  

  第41届戛纳电影节(1988)
  主比赛单元 金棕榈奖(提名) 陈凯歌

  第8届中国电影金鸡奖(1988)
  评委会出格奖 出格影人奖 陈凯歌
  最好故事片(提名)
  最好摄影 顾长卫
  最好美术 陈绍华
  1. Video
  2. ID                                       : 1
  3. Format                                   : AVC
  4. Format/Info                              : Advanced Video Codec
  5. Format profile                           : High@L4
  6. Format settings                          : CABAC / 4 Ref Frames
  7. Format settings, CABAC                   : Yes
  8. Format settings, Reference frames        : 4 frames
  9. Codec ID                                 : V_MPEG4/ISO/AVC
  10. Duration                                 : 1 h 45 min
  11. Bit rate                                 : 8 524 kb/s
  12. Width                                    : 1 920 pixels
  13. Height                                   : 1 040 pixels
  14. Display aspect ratio                     : 1.85:1
  15. Frame rate mode                          : Constant
  16. Frame rate                               : 24.000 FPS
  17. Color space                              : YUV
  18. Chroma subsampling                       : 4:2:0
  19. Bit depth                                : 8 bits
  20. Scan type                                : Progressive
  21. Bits/(Pixel*Frame)                       : 0.178
  22. Stream size                              : 6.30 GiB (96%)
  23. Writing library                          : x264 core 158 r2984 3759fcb
  24. Encoding settings                        : cabac=1 / ref=4 / deblock=1:-3:-3 / analyse=0x3:0x133 / me=umh / subme=9 / psy=1 / psy_rd=1.00:0.00 / mixed_ref=1 / me_range=16 / chroma_me=1 / trellis=2 / 8x8dct=1 / cqm=0 / deadzone=21,11 / fast_pskip=0 / chroma_qp_offset=-2 / threads=24 / lookahead_threads=2 / sliced_threads=0 / nr=0 / decimate=1 / interlaced=0 / bluray_compat=0 / constrained_intra=0 / bframes=3 / b_pyramid=2 / b_adapt=1 / b_bias=0 / direct=3 / weightb=1 / open_gop=0 / weightp=2 / keyint=240 / keyint_min=24 / scenecut=40 / intra_refresh=0 / rc_lookahead=50 / rc=2pass / mbtree=1 / bitrate=8524 / ratetol=1.0 / qcomp=0.60 / qpmin=0 / qpmax=69 / qpstep=4 / cplxblur=20.0 / qblur=0.5 / ip_ratio=1.40 / aq=1:1.00
  25. Language                                 : English
  26. Default                                  : Yes
  27. Forced                                   : No

  28. Audio
  29. ID                                       : 2
  30. Format                                   : FLAC
  31. Format/Info                              : Free Lossless Audio Codec
  32. Codec ID                                 : A_FLAC
  33. Duration                                 : 1 h 45 min
  34. Bit rate mode                            : Variable
  35. Bit rate                                 : 346 kb/s
  36. Channel(s)                               : 1 channel
  37. Channel layout                           : C
  38. Sampling rate                            : 48.0 kHz
  39. Frame rate                               : 11.719 FPS (4096 SPF)
  40. Bit depth                                : 16 bits
  41. Compression mode                         : Lossless
  42. Stream size                              : 262 MiB (4%)
  43. Writing library                          : libFLAC 1.2.1 (UTC 2007-09-17)
  44. Language                                 : Chinese
  45. Default                                  : Yes
  46. Forced                                   : No

  47. Text
  48. ID                                       : 3
  49. Format                                   : UTF-8
  50. Codec ID                                 : S_TEXT/UTF8
  51. Codec ID/Info                            : UTF-8 Plain Text
  52. Duration                                 : 1 h 41 min
  53. Bit rate                                 : 31 b/s
  54. Count of elements                        : 817
  55. Stream size                              : 23.1 KiB (0%)
  56. Title                                    : English
  57. Language                                 : English
  58. Default                                  : Yes
  59. Forced                                   : Yes

  60. Menu
  61. 00:00:00.000                             : en:00:00:00.000
  62. 00:10:46.292                             : en:00:10:46.292
  63. 00:18:53.708                             : en:00:18:53.708
  64. 00:28:36.458                             : en:00:28:36.458
  65. 00:40:58.625                             : en:00:40:58.625
  66. 00:49:53.792                             : en:00:49:53.792
  67. 00:57:03.375                             : en:00:57:03.375
  68. 01:03:01.458                             : en:01:03:01.458
  69. 01:10:44.958                             : en:01:10:44.958
  70. 01:23:03.583                             : en:01:23:03.583
  71. 01:32:15.625                             : en:01:32:15.625
  72. 01:41:21.875                             : en:01:41:21.875
复制代码

孩子王 King.of.the.Children.1987.1080p.BluRay.x264-REGRET 6.57GB-2.png







VIP会员免费任意下载本站所有资源!---点击开通
回复

使用道具 举报

懒得打字嘛,点击右侧快捷回复 【右侧内容,后台自定义】
您需要登录后才可以回帖 登录 | 立即注册

本版积分规则

QQ|Archiver|手机版|小黑屋| 中国高清网 |网站地图

GMT+8, 2019-11-20 10:22 , Processed in 0.238617 second(s), 37 queries .

Powered by HDchina X3.4

Copyright 2017-2019©HDchina.All right reserved

返回顶部 联系我们