查看: 53|回复: 1

[剧情片] 再造战士/宇宙战士 Universal.Soldier.1992.REMASTERED.720p.BluRay.X264-AMIABLE 6.56GB

[复制链接]

 成长值: 3160

级别:资源管理组

注册时间
2017-10-20
最后登录
2019-11-15
听众
1
收听
0
主题
86768
蓝光币
61946 枚
贡献
11126 点
发表于 2019-11-4 17:03:11 | 显示全部楼层 |阅读模式
再造战士/宇宙战士 Universal.Soldier.1992.REMASTERED.720p.BluRay.X264-AMIABLE 6.56GB-1.png ! X8 _) g) W# e) f) _
/ G1 u- O' B, Q5 c) s/ J+ _: U+ V
译  名 再造战士 / 宇宙战士 / 魔鬼号令! B4 H& P! R$ s
片  名 Universal Soldier9 |$ {$ U9 ?6 G1 Q
年  代 1992
8 U9 o2 p& T+ ]" M' \' }" }0 k产  地 美国
/ U1 a6 k2 m# Z# {! L. V类  别 剧情 / 行动 / 科幻. Z" j  n( d+ H3 n: _/ |; S
语  言 英语
' A& }) E& S& p; _" X# Y上映日期 1992-07-10
7 Y- S7 ^5 k- M4 v: M! L0 `* UIMDb评分  6.0/10 from 78583 users
& T4 V3 h- G  W: A- i' a6 VIMDb链接  https://www.imdb.com/title/tt0105698" P6 S$ ~0 q2 E/ a3 m
豆瓣评分 6.6/10 from 2917 users
) r, {- k* D# q1 @% g豆瓣链接 https://movie.douban.com/subject/1298717/
4 m/ T% A9 B  s- S, [' R片  长 102 分钟
! m7 n+ e3 _/ l% W导  演 罗兰·艾默里奇 Roland Emmerich
. i0 q, P7 e; L$ ^9 O编  剧 Christopher Leitch / Richard Rothstein
2 c3 C- w2 U; I2 I: X/ [3 D主  演 杜夫·朗格 Dolph Lundgren
6 ~2 O' e$ M  f+ C       尚格·云顿 Jean-Claude Van Damme
4 k  g+ H7 y3 @( ^4 E! Q       艾利·沃克 Ally Walker- {5 z( v6 g: A% `7 S

0 L' [" O3 L) o2 K8 N* _; L/ H9 L: H1 O
标  签 科幻 | 行动 | 美国 | 尚格·云顿 | 1992 | 美国电影 | 暴力 | 行动片
# l4 u( i7 `5 |4 U( k" q
1 s( ~4 u5 j- Z: E$ i  a+ {简  介  # y; a9 t9 f+ M3 v

& N3 w! O* H6 D  越战后,美国政府停止了一项绝密的科妹计划。科妹家们将越战中牺牲的兵士的尸身冰冻起来,植入电脑芯片,输入战争法式,讲他们革新成为新一代的战争机械人――“宇宙战士”,这些机械人没有感情和之前的记忆,只要冰冷的杀戮兵器。兵士卢克(尚格?云顿 Jean-Claude Van Damme 饰)和班长安德鲁(杜夫?朗格 Dolph Lundgren 饰)就是其中两员,他们被派往加入一场新的战争。战争中,两人的芯片忽然出错,令两人都规复了之前的记忆。$ M! g; ?) i; g8 g, [: m
  卢克记起越战昔时正是安德鲁忽然性情大变将部属和俘虏都杀光,误闯美军基地的女记者罗伯斯(艾丽?沃克 Ally Walker 饰)意围得悉了美军这一奥秘。原本罗伯斯难逃一死,关键时辰卢克救走了她。因而,美军派出一切的宇宙战士起头追杀二人。' X3 t: r; T# ]! B
  1. Video' ^: r) U& n2 N4 J" x% G" |* T& U
  2. ID                                       : 1
    - ~+ X8 f& {3 E+ f/ F9 w/ |
  3. Format                                   : AVC
    0 Z1 b5 z; U: [* }  F4 |
  4. Format/Info                              : Advanced Video Codec3 d2 W8 ]) \( A; p! _+ a( Z
  5. Format profile                           : High@L4, q6 P# _# k# f2 @) \) l. L) y
  6. Format settings                          : CABAC / 12 Ref Frames
    5 M# Z- V' x' @; w
  7. Format settings, CABAC                   : Yes
    : ?, K$ R* a* R+ t9 x1 y
  8. Format settings, Reference frames        : 12 frames
    # G+ o9 e: j/ D  i; t5 N7 [
  9. Codec ID                                 : V_MPEG4/ISO/AVC
    * r! J0 q0 e- E5 P6 k. a# Y
  10. Duration                                 : 1 h 43 min# X$ F7 N' x: p$ k9 U; L) A" l
  11. Bit rate                                 : 7 576 kb/s
    9 c0 O6 u5 j) Y$ E7 H
  12. Width                                    : 1 280 pixels2 {, \$ e; x1 ~" c- J, i
  13. Height                                   : 544 pixels
    : l! M, m* d5 q: l8 E) J. d7 d9 I
  14. Display aspect ratio                     : 2.35:15 r% C% {6 C. h/ y+ L$ z
  15. Frame rate mode                          : Constant
    - c4 X+ C% ]& f9 G: _- H' {
  16. Frame rate                               : 24.000 FPS, t  F3 i: H) p5 f; q
  17. Color space                              : YUV
    " ?+ W0 g/ H- O! e, x9 E" H
  18. Chroma subsampling                       : 4:2:0
    $ T* L( L4 N, D  c6 N
  19. Bit depth                                : 8 bits1 G+ m7 R1 n" S# r$ e0 E
  20. Scan type                                : Progressive  v$ x, I! P! u: b* S
  21. Bits/(Pixel*Frame)                       : 0.453
    + U, w* X* q- e# ^( y
  22. Stream size                              : 5.33 GiB (81%)
    0 [& r2 ~6 U0 O  G9 |8 |
  23. Writing library                          : x264 core 158 r2984 3759fcb# ^/ v2 `: [/ n5 C" ?
  24. Encoding settings                        : cabac=1 / ref=12 / deblock=1:-3:-3 / analyse=0x3:0x133 / me=umh / subme=10 / psy=1 / psy_rd=1.05:0.00 / mixed_ref=1 / me_range=24 / chroma_me=1 / trellis=2 / 8x8dct=1 / cqm=0 / deadzone=21,11 / fast_pskip=0 / chroma_qp_offset=-2 / threads=17 / lookahead_threads=4 / sliced_threads=0 / nr=0 / decimate=0 / interlaced=0 / bluray_compat=0 / constrained_intra=0 / bframes=10 / b_pyramid=2 / b_adapt=2 / b_bias=0 / direct=3 / weightb=1 / open_gop=0 / weightp=2 / keyint=240 / keyint_min=24 / scenecut=40 / intra_refresh=0 / rc_lookahead=60 / rc=2pass / mbtree=1 / bitrate=7576 / ratetol=1.0 / qcomp=0.60 / qpmin=0 / qpmax=69 / qpstep=4 / cplxblur=20.0 / qblur=0.5 / ip_ratio=1.30 / aq=3:0.702 m/ `. p+ r- c# u+ l% r5 [
  25. Default                                  : Yes
    : r- m  |, t+ B3 i
  26. Forced                                   : No
    8 l( W7 O: |4 f4 v% ~& w. V- Y
  27. Statistics Tags Issue                    : no_variable_data 1970-01-01 00:00:00 / no_variable_data 2010-02-22 21:41:29
    ; q8 Z- o. X4 D$ m, O1 b* {2 b
  28. FromStats_BitRate                        : 7566316  Z1 T; E: ]4 U; y/ r8 L/ q3 k
  29. FromStats_Duration                       : 01:43:20.417000000
    ( W: e9 x- l. p- }  @- f: i
  30. FromStats_FrameCount                     : 148810
    * l, {6 ]7 N7 D
  31. FromStats_StreamSize                     : 5864289671& f. F, r, @# n* i6 A% ?  o3 P( t
  32. ' Y( j+ h- }& l
  33. Audio) b. X1 S9 n/ ^* x  {6 O
  34. ID                                       : 2
    8 e; M) g7 D; w7 [% A0 J6 t
  35. Format                                   : DTS; E7 Q& y6 H, |+ V1 z
  36. Format/Info                              : Digital Theater Systems# P4 Y( d+ X6 Z) Q& P6 y/ D% ]! U
  37. Codec ID                                 : A_DTS7 X- a  A  K5 Q; l+ s
  38. Duration                                 : 1 h 43 min
    $ |4 B& I' Z, @: E$ j8 r
  39. Bit rate mode                            : Constant
    ; Y* N( `/ m9 |$ M" j
  40. Bit rate                                 : 1 509 kb/s
    % J- J! L& l( U3 b, y1 m0 o
  41. Channel(s)                               : 6 channels9 o8 |0 f+ H$ m! B' B7 j- G% G
  42. Channel layout                           : C L R Ls Rs LFE
    3 c" }, u4 @: k" b# y$ V
  43. Sampling rate                            : 48.0 kHz
    6 Z' q3 I3 Q9 ^
  44. Frame rate                               : 93.750 FPS (512 SPF)
    & \4 j$ R& W5 H7 D
  45. Bit depth                                : 24 bits
    2 w- S7 S+ `" S% U9 o1 n% W
  46. Compression mode                         : Lossy5 `, I# M1 z7 E2 T; e6 X8 |' X0 [+ O1 q' P
  47. Stream size                              : 1.09 GiB (17%): t8 a5 B! h9 c9 [* D3 g4 j
  48. Language                                 : English- _% \. {! ]. X% n) z5 e4 L
  49. Default                                  : Yes
    6 r7 n, ~8 i: S& k% H
  50. Forced                                   : No
    + Q3 y6 S$ o% G% Y* |0 f) N
  51. Statistics Tags Issue                    : no_variable_data 1970-01-01 00:00:00 / no_variable_data 2010-02-22 21:41:29. A" G% K$ z$ h
  52. FromStats_BitRate                        : 1508999
    : U8 }. I) |+ a6 I0 p2 q2 H& U2 ]
  53. FromStats_Duration                       : 01:43:20.4270000007 _1 o, T! b* ?, r6 W* g" l( M2 u" ^
  54. FromStats_FrameCount                     : 581290
    & G8 e! P" C+ ^" W  N
  55. FromStats_StreamSize                     : 11695554807 l0 Y5 P- M6 P

  56. - ?) p" L. M& u* b
  57. Text #1& Q# _5 Q2 ~9 h$ [1 O. V" S0 m
  58. ID                                       : 3
    2 q" L+ ~4 j1 q4 y+ |/ a1 v
  59. Format                                   : UTF-8
    : n' [4 v+ t- n4 g+ j7 A2 n! o
  60. Codec ID                                 : S_TEXT/UTF8  T  _( F! G8 P* Z
  61. Codec ID/Info                            : UTF-8 Plain Text
    5 S& G, P% ~! H2 W
  62. Language                                 : English
    7 w" L7 z3 g: s
  63. Default                                  : No" X, W- O2 m8 a! O# s+ Q9 V
  64. Forced                                   : No+ \- ~7 g  V$ u
  65. Statistics Tags Issue                    : no_variable_data 1970-01-01 00:00:00 / no_variable_data 2010-02-22 21:41:29
    ) p3 B4 C/ O  I$ B' E
  66. FromStats_BitRate                        : 47
      e1 l2 r: ~0 {
  67. FromStats_Duration                       : 01:36:08.334000000( [3 p' [* f$ @0 x: J3 G2 V! o$ u2 ~  M- ^
  68. FromStats_FrameCount                     : 1050
    : y$ |* W  F  ~' T! D: m( k
  69. FromStats_StreamSize                     : 34128
    7 j" X4 O+ I% K+ T

  70. ' f7 E1 Q" W$ j4 S" m( ]
  71. Text #25 }8 @; {5 p9 c: B+ i; ^( ?4 r
  72. ID                                       : 41 Y' \& D" E! v6 `$ n3 e/ _+ A
  73. Format                                   : UTF-8- z* B' E. k9 |: J
  74. Codec ID                                 : S_TEXT/UTF8. n, R5 f( s* }* a
  75. Codec ID/Info                            : UTF-8 Plain Text! W- b4 o# q+ n, t8 P% k
  76. Title                                    : SDH# V6 s! ?1 p6 r' }) ?
  77. Language                                 : English
    ( E2 n8 R8 |7 [. }' q
  78. Default                                  : No
    7 f9 A, E$ i2 `4 h( m
  79. Forced                                   : No
    8 D5 H. Z% }5 v
  80. Statistics Tags Issue                    : no_variable_data 1970-01-01 00:00:00 / no_variable_data 2010-02-22 21:41:29
    ) V, a3 L" v7 m- t% A! ^
  81. FromStats_BitRate                        : 57
    + j4 Q5 ^6 {& n. m
  82. FromStats_Duration                       : 01:37:10.750000000
    . V6 `( b3 D9 [7 p9 {, N/ h
  83. FromStats_FrameCount                     : 1246$ |7 b1 |  i, Z7 Z7 e
  84. FromStats_StreamSize                     : 41652  n( w' f% j! p' ]

  85. & B/ n( E$ `- M' e
  86. Menu" g0 j# ~( W3 R8 {) D2 t: I
  87. 00:00:00.000                             : en:Chapter 01
    . |( j+ b) E3 T' \7 x7 G. y
  88. 00:10:27.500                             : en:Chapter 025 G( y# N! Z, s) h  c
  89. 00:20:51.833                             : en:Chapter 035 \+ D1 \0 E/ x0 k0 \+ I
  90. 00:31:24.750                             : en:Chapter 04- O' x/ W# P2 C$ D  A
  91. 00:42:41.333                             : en:Chapter 054 H% u6 J- R( L% |! U4 D2 M
  92. 00:53:13.833                             : en:Chapter 06
    4 U. r1 b6 }* z, m) X0 A
  93. 01:04:07.500                             : en:Chapter 07+ U( J9 o. r; u; M" J6 u: z
  94. 01:14:22.667                             : en:Chapter 08
    4 ^; l3 E& Z8 ?4 y0 m
  95. 01:21:53.333                             : en:Chapter 09
    * k' ~8 R: Q. o9 g( U/ Y
  96. 01:31:32.875                             : en:Chapter 10
复制代码

! n0 v/ t: o! ]1 I* J7 P 再造战士/宇宙战士 Universal.Soldier.1992.REMASTERED.720p.BluRay.X264-AMIABLE 6.56GB-2.png - m. M1 i& X+ d9 |8 e; o1 `

( e. _* |% O& P& w7 D3 c0 ]% Y/ m$ c6 T- r- G

, W  j+ w7 I: z5 V) S& ^; u6 X  \2 a/ x6 J' f
1 o# P5 r3 Y, u) r' h
) p3 X5 i3 z* \; Y
8 o; R  {4 M4 o, Q" o2 Z
VIP会员免费任意下载本站所有资源!---点击开通
回复

使用道具 举报

级别:一举成名 Lv.7

注册时间
2019-4-24
最后登录
2019-11-14
听众
13
收听
0
主题
0
蓝光币
194 枚
贡献
0 点
发表于 2019-11-7 10:30:44 | 显示全部楼层
楼主发贴辛苦了,谢谢楼主分享!我觉得中国高清电影网是注册对了!
VIP会员免费任意下载本站所有资源!---点击开通
回复

使用道具 举报

懒得打字嘛,点击右侧快捷回复 【右侧内容,后台自定义】
您需要登录后才可以回帖 登录 | 立即注册

本版积分规则

QQ|Archiver|手机版|小黑屋| 中国高清网 |网站地图 

GMT+8, 2019-11-15 20:11 , Processed in 0.265682 second(s), 37 queries .

Powered by HDchina X3.4

Copyright 2017-2019©HDchina.All right reserved

返回顶部 联系我们