查看: 360|回复: 3

[10bit.HDR] 狮子王/狮子王真人版 The.Lion.King.2019.2160p.UHD.BluRay.X265.10bit.HDR.TrueHD.7.1.Atmos-TERMiNAL 15.94GB

[复制链接]

 成长值: 3160

级别:资源管理组

注册时间
2017-10-20
最后登录
2019-11-11
听众
1
收听
0
主题
86761
蓝光币
61861 枚
贡献
11119 点
发表于 2019-10-17 13:43:22 | 显示全部楼层 |阅读模式
狮子王/狮子王真人版 The.Lion.King.2019.2160p.UHD.BluRay.X265.10bit.HDR.TrueHD.7.1.Atmos-TERMiNAL 15.94GB-1.png

译  名 狮子王 / 狮子王真人版 / 狮子王实在版 / 狮子王真狮版
片  名 The Lion King
年  代 2019
产  地 美国
类  别 剧情 / 动画 / 冒险
语  言 英语 / 科萨语
上映日期 2019-07-12(中国大陆) / 2019-07-19(美国)
IMDb评分  7.1/10 from 104480 users
IMDb链接  http://www.imdb.com/title/tt6105098
豆瓣评分 7.4/10 from 196500 users
豆瓣链接 https://movie.douban.com/subject/26884354/
片  长 118分钟
导  演 乔恩·费儒 Jon Favreau
编  剧 杰夫·内拿森 Jeff Nathanson / 布兰达?查普曼 Brenda Chapman / 艾琳·梅琪 Irene Mecchi / 乔纳森·罗伯茨 Jonathan Roberts / 琳达·伍尔芙顿 Linda Woolverton
主  演 唐纳德·格洛弗 Donald Glover
       阿尔法·伍达德 Alfre Woodard
       詹姆斯·厄尔·琼斯 James Earl Jones
       切瓦特·埃加福特 Chiwetel Ejiofor
       科甘-迈克尔·凯 Keegan-Michael Key
       塞斯·罗根 Seth Rogen
       比利·艾希纳 Billy Eichner
       碧昂丝·诺尔斯 Beyoncé Knowles
       埃里克·安德烈 Eric André
       弗洛伦丝·卡松巴 Florence Kasumba
       约翰·卡尼 John Kani
       约翰·奥利弗 John Oliver
       艾米·塞德丽丝 Amy Sedaris


标  签 迪士尼 | 典范 | 动画 | 童年 | 美国 | 长大 | 2019 | 动物

简  介  

  非洲大草原上一轮红日冉冉升起,为高峻的乞力马扎罗山披上层金色的光纱,一切的动物涌向了同一个地方——光荣石,兴奋地期待着一个严重消息的公布:它们的国王木法沙将迎来自己的新生儿。
  这个新生儿就是小狮子辛巴,它是木法沙的法定接棒人、光荣石未来的国王。
  小狮子王辛巴在众多热情的朋友的陪伴下,不单履历了生射中最名誉的时辰,也遭受了最艰难的应战,最初终究成为了森林之王,也在循环往复生生不息的自然中体味诞生命的真义。

获奖情况  

  第5届豆瓣电影年度榜单(2018)
  最值得期待的围语电影(提名)
  1. Video
  2. ID                                       : 1
  3. Format                                   : HEVC
  4. Format/Info                              : High Efficiency Video Coding
  5. Format profile                           : Main High@L4@High
  6. HDR format                               : SMPTE ST 2086, HDR10 compatible
  7. Codec ID                                 : V_MPEGH/ISO/HEVC
  8. Duration                                 : 1 h 58 min
  9. Bit rate                                 : 13.4 Mb/s
  10. Width                                    : 3 840 pixels
  11. Height                                   : 2 160 pixels
  12. Display aspect ratio                     : 16:9
  13. Frame rate mode                          : Constant
  14. Frame rate                               : 23.976 (24000/1001) FPS
  15. Color space                              : YUV
  16. Chroma subsampling                       : 4:2:0 (Type 2)
  17. Bit depth                                : 10 bits
  18. Bits/(Pixel*Frame)                       : 0.067
  19. Stream size                              : 11.1 GiB (70%)
  20. Writing library                          : x265 3.2f46aa2bc1c34:[Windows][GCC 9.2.0][64 bit] 10bit
  21. Encoding settings                        : cpuid=1111039 / frame-threads=6 / numa-pools=36 / wpp / no-pmode / no-pme / no-psnr / no-ssim / log-level=2 / input-csp=1 / input-res=3840x2160 / interlace=0 / total-frames=170099 / level-idc=51 / high-tier=1 / uhd-bd=1 / ref=4 / no-allow-non-conformance / repeat-headers / annexb / aud / hrd / info / hash=0 / no-temporal-layers / no-open-gop / min-keyint=1 / keyint=24 / gop-lookahead=0 / bframes=4 / b-adapt=2 / b-pyramid / bframe-bias=0 / rc-lookahead=25 / lookahead-slices=4 / scenecut=40 / radl=0 / no-splice / no-intra-refresh / ctu=64 / min-cu-size=8 / rect / no-amp / max-tu-size=32 / tu-inter-depth=1 / tu-intra-depth=1 / limit-tu=0 / rdoq-level=2 / dynamic-rd=0.00 / no-ssim-rd / signhide / no-tskip / nr-intra=0 / nr-inter=0 / no-constrained-intra / no-strong-intra-smoothing / max-merge=3 / limit-refs=3 / limit-modes / me=3 / subme=3 / merange=57 / temporal-mvp / no-frame-dup / no-hme / weightp / no-weightb / no-analyze-src-pics / deblock=-3:-3 / no-sao / no-sao-non-deblock / rd=4 / selective-sao=0 / no-early-skip / rskip / no-fast-intra / no-tskip-fast / no-cu-lossless / no-b-intra / no-splitrd-skip / rdpenalty=0 / psy-rd=2.00 / psy-rdoq=1.00 / no-rd-refine / no-lossless / cbqpoffs=0 / crqpoffs=0 / rc=crf / crf=17.0 / qcomp=0.60 / qpstep=4 / stats-write=0 / stats-read=0 / vbv-maxrate=160000 / vbv-bufsize=160000 / vbv-init=0.9 / crf-max=0.0 / crf-min=0.0 / ipratio=1.40 / pbratio=1.30 / aq-mode=2 / aq-strength=1.00 / cutree / zone-count=0 / no-strict-cbr / qg-size=32 / no-rc-grain / qpmax=69 / qpmin=0 / no-const-vbv / sar=1 / overscan=0 / videoformat=5 / range=0 / colorprim=9 / transfer=16 / colormatrix=9 / chromaloc=1 / chromaloc-top=2 / chromaloc-bottom=2 / display-window=0 / master-display=G(13250,34500)B(7500,3000)R(34000,16000)WP(15635,16450)L(10000000,1) / cll=0,0 / min-luma=0 / max-luma=1023 / log2-max-poc-lsb=8 / vui-timing-info / vui-hrd-info / slices=1 / no-opt-qp-pps / no-opt-ref-list-length-pps / no-multi-pass-opt-rps / scenecut-bias=0.05 / no-opt-cu-delta-qp / no-aq-motion / hdr / hdr-opt / no-dhdr10-opt / no-idr-recovery-sei / analysis-reuse-level=5 / scale-factor=0 / refine-intra=0 / refine-inter=0 / refine-mv=1 / refine-ctu-distortion=0 / no-limit-sao / ctu-info=0 / no-lowpass-dct / refine-analysis-type=0 / copy-pic=1 / max-ausize-factor=1.0 / no-dynamic-refine / no-single-sei / no-hevc-aq / no-svt / no-field / qp-adaptation-range=1.00
  22. Default                                  : Yes
  23. Forced                                   : No
  24. Color range                              : Limited
  25. Color primaries                          : BT.2020
  26. Transfer characteristics                 : PQ
  27. Matrix coefficients                      : BT.2020 non-constant
  28. Mastering display color primaries        : Display P3
  29. Mastering display luminance              : min: 0.0001 cd/m2, max: 1000 cd/m2

  30. Audio #1
  31. ID                                       : 2
  32. Format                                   : MLP FBA 16-ch
  33. Format/Info                              : Meridian Lossless Packing FBA with 16-channel presentation
  34. Commercial name                          : Dolby TrueHD with Dolby Atmos
  35. Codec ID                                 : A_TRUEHD
  36. Duration                                 : 1 h 58 min
  37. Bit rate mode                            : Variable
  38. Bit rate                                 : 4 929 kb/s
  39. Maximum bit rate                         : 7 332 kb/s
  40. Channel(s)                               : 8 channels
  41. Channel layout                           : L R C LFE Ls Rs Lb Rb
  42. Sampling rate                            : 48.0 kHz
  43. Frame rate                               : 1 200.000 FPS (40 SPF)
  44. Compression mode                         : Lossless
  45. Stream size                              : 4.07 GiB (26%)
  46. Language                                 : English
  47. Default                                  : Yes
  48. Forced                                   : No
  49. Number of dynamic objects                : 13
  50. Bed channel count                        : 1 channel
  51. Bed channel configuration                : LFE

  52. Audio #2
  53. ID                                       : 3
  54. Format                                   : AC-3
  55. Format/Info                              : Audio Coding 3
  56. Commercial name                          : Dolby Digital
  57. Codec ID                                 : A_AC3
  58. Duration                                 : 1 h 58 min
  59. Bit rate mode                            : Constant
  60. Bit rate                                 : 640 kb/s
  61. Channel(s)                               : 6 channels
  62. Channel layout                           : L R C LFE Ls Rs
  63. Sampling rate                            : 48.0 kHz
  64. Frame rate                               : 31.250 FPS (1536 SPF)
  65. Bit depth                                : 16 bits
  66. Compression mode                         : Lossy
  67. Stream size                              : 541 MiB (3%)
  68. Language                                 : English
  69. Service kind                             : Complete Main
  70. Default                                  : No
  71. Forced                                   : No

  72. Text #1
  73. ID                                       : 4
  74. Format                                   : PGS
  75. Muxing mode                              : zlib
  76. Codec ID                                 : S_HDMV/PGS
  77. Codec ID/Info                            : Picture based subtitle format used on BDs/HD-DVDs
  78. Duration                                 : 1 h 52 min
  79. Bit rate                                 : 37.3 kb/s
  80. Count of elements                        : 3420
  81. Stream size                              : 29.8 MiB (0%)
  82. Language                                 : English
  83. Default                                  : No
  84. Forced                                   : No

  85. Text #2
  86. ID                                       : 5
  87. Format                                   : PGS
  88. Muxing mode                              : zlib
  89. Codec ID                                 : S_HDMV/PGS
  90. Codec ID/Info                            : Picture based subtitle format used on BDs/HD-DVDs
  91. Duration                                 : 1 h 55 min
  92. Bit rate                                 : 25.9 kb/s
  93. Count of elements                        : 2556
  94. Stream size                              : 21.5 MiB (0%)
  95. Language                                 : French
  96. Default                                  : No
  97. Forced                                   : No

  98. Text #3
  99. ID                                       : 6
  100. Format                                   : PGS
  101. Muxing mode                              : zlib
  102. Codec ID                                 : S_HDMV/PGS
  103. Codec ID/Info                            : Picture based subtitle format used on BDs/HD-DVDs
  104. Duration                                 : 1 h 56 min
  105. Bit rate                                 : 31.4 kb/s
  106. Count of elements                        : 2788
  107. Stream size                              : 26.2 MiB (0%)
  108. Language                                 : French
  109. Default                                  : No
  110. Forced                                   : No

  111. Text #4
  112. ID                                       : 7
  113. Format                                   : PGS
  114. Muxing mode                              : zlib
  115. Codec ID                                 : S_HDMV/PGS
  116. Codec ID/Info                            : Picture based subtitle format used on BDs/HD-DVDs
  117. Duration                                 : 1 h 46 min
  118. Bit rate                                 : 32.7 kb/s
  119. Count of elements                        : 2742
  120. Stream size                              : 24.8 MiB (0%)
  121. Language                                 : Spanish
  122. Default                                  : No
  123. Forced                                   : No

  124. Text #5
  125. ID                                       : 8
  126. Format                                   : PGS
  127. Muxing mode                              : zlib
  128. Codec ID                                 : S_HDMV/PGS
  129. Codec ID/Info                            : Picture based subtitle format used on BDs/HD-DVDs
  130. Duration                                 : 1 h 55 min
  131. Bit rate                                 : 28.1 kb/s
  132. Count of elements                        : 2716
  133. Stream size                              : 23.3 MiB (0%)
  134. Language                                 : Italian
  135. Default                                  : No
  136. Forced                                   : No

  137. Text #6
  138. ID                                       : 9
  139. Format                                   : PGS
  140. Muxing mode                              : zlib
  141. Codec ID                                 : S_HDMV/PGS
  142. Codec ID/Info                            : Picture based subtitle format used on BDs/HD-DVDs
  143. Duration                                 : 1 h 55 min
  144. Bit rate                                 : 28.9 kb/s
  145. Count of elements                        : 2850
  146. Stream size                              : 24.0 MiB (0%)
  147. Language                                 : German
  148. Default                                  : No
  149. Forced                                   : No

  150. Text #7
  151. ID                                       : 10
  152. Format                                   : PGS
  153. Muxing mode                              : zlib
  154. Codec ID                                 : S_HDMV/PGS
  155. Codec ID/Info                            : Picture based subtitle format used on BDs/HD-DVDs
  156. Duration                                 : 1 h 55 min
  157. Bit rate                                 : 25.9 kb/s
  158. Count of elements                        : 2716
  159. Stream size                              : 21.4 MiB (0%)
  160. Language                                 : Norwegian
  161. Default                                  : No
  162. Forced                                   : No

  163. Text #8
  164. ID                                       : 11
  165. Format                                   : PGS
  166. Muxing mode                              : zlib
  167. Codec ID                                 : S_HDMV/PGS
  168. Codec ID/Info                            : Picture based subtitle format used on BDs/HD-DVDs
  169. Duration                                 : 1 h 55 min
  170. Bit rate                                 : 24.1 kb/s
  171. Count of elements                        : 1890
  172. Stream size                              : 20.0 MiB (0%)
  173. Language                                 : Swedish
  174. Default                                  : No
  175. Forced                                   : No

  176. Menu
  177. 00:00:00.000                             : en:Chapter 01
  178. 00:04:50.499                             : en:Chapter 02
  179. 00:10:51.067                             : en:Chapter 03
  180. 00:17:47.692                             : en:Chapter 04
  181. 00:23:53.015                             : en:Chapter 05
  182. 00:30:00.132                             : en:Chapter 06
  183. 00:33:05.066                             : en:Chapter 07
  184. 00:37:09.310                             : en:Chapter 08
  185. 00:43:42.912                             : en:Chapter 09
  186. 00:50:47.336                             : en:Chapter 10
  187. 00:55:02.716                             : en:Chapter 11
  188. 00:59:48.460                             : en:Chapter 12
  189. 01:06:27.233                             : en:Chapter 13
  190. 01:14:32.093                             : en:Chapter 14
  191. 01:18:26.410                             : en:Chapter 15
  192. 01:23:07.900                             : en:Chapter 16
  193. 01:28:04.654                             : en:Chapter 17
  194. 01:33:10.877                             : en:Chapter 18
  195. 01:37:13.745                             : en:Chapter 19
  196. 01:44:39.190                             : en:Chapter 20
  197. 01:47:47.336                             : en:Chapter 21
复制代码

狮子王/狮子王真人版 The.Lion.King.2019.2160p.UHD.BluRay.X265.10bit.HDR.TrueHD.7.1.Atmos-TERMiNAL 15.94GB-2.png 狮子王/狮子王真人版 The.Lion.King.2019.2160p.UHD.BluRay.X265.10bit.HDR.TrueHD.7.1.Atmos-TERMiNAL 15.94GB-3.png 狮子王/狮子王真人版 The.Lion.King.2019.2160p.UHD.BluRay.X265.10bit.HDR.TrueHD.7.1.Atmos-TERMiNAL 15.94GB-4.png







本帖隐藏的下载地址需要VIP会员才可阅读,您需要升级才可阅读,点击这里升级VIP
VIP会员免费任意下载本站所有资源!---点击开通
回复

使用道具 举报

级别:普通观众 Lv.2

注册时间
2019-4-12
最后登录
2019-11-11
听众
7
收听
0
主题
0
蓝光币
37 枚
贡献
0 点
QQ
发表于 2019-10-20 10:26:32 | 显示全部楼层

楼主太厉害了!楼主,电影应该很好看我觉得中国高清电影网真是个好地方!
VIP会员免费任意下载本站所有资源!---点击开通
回复

使用道具 举报

级别:初级观众 Lv.1

注册时间
2019-10-21
最后登录
2019-11-12
听众
0
收听
0
主题
0
蓝光币
12 枚
贡献
0 点
发表于 2019-10-21 16:45:33 | 显示全部楼层

感谢楼主的无私分享!要想中国高清电影网好 就靠你我他
VIP会员免费任意下载本站所有资源!---点击开通
回复

使用道具 举报

级别:初级观众 Lv.1

注册时间
2019-11-4
最后登录
2019-11-4
听众
0
收听
0
主题
0
蓝光币
4 枚
贡献
0 点
发表于 2019-11-4 14:27:54 | 显示全部楼层
楼主发贴辛苦了,谢谢楼主分享!我觉得中国高清电影网是注册对了!
VIP会员免费任意下载本站所有资源!---点击开通
回复

使用道具 举报

懒得打字嘛,点击右侧快捷回复 【右侧内容,后台自定义】
您需要登录后才可以回帖 登录 | 立即注册

本版积分规则

QQ|Archiver|手机版|小黑屋| 中国高清网 |网站地图 

GMT+8, 2019-11-15 11:00 , Processed in 0.266996 second(s), 38 queries .

Powered by HDchina X3.4

Copyright 2017-2019©HDchina.All right reserved

返回顶部 联系我们