查看: 1079|回复: 1

[2160p-WEB] 波士顿绞杀手.Boston.Strangler.2023.2160p.HULU.WEB-DL.x265.10bit.SDR.DDP5.1.Atmos-FLUX 12.37GB

[复制链接]
蓝光币
8408 枚
发表于 2023-3-18 08:19:10 | 显示全部楼层 |阅读模式


◎译  名 波士顿绞杀手 / 波士顿绞杀手(台) / The Boston Strangler
◎片  名 Boston Strangler
◎年  代 2023
◎产  地 美国
◎类  别 剧情 / 惊悚 / 历史 / 犯罪
◎语  言 英语
◎上映日期 2023-03-17(美国收集)
◎IMDb链接  https://www.imdb.com/title/tt2560078/
◎豆瓣链接 https://movie.douban.com/subject/35614661/
◎片  长 112分钟
◎导  演 马特·罗斯金 / Matt Ruskin
◎演  员 凯拉·奈特莉 / Keira Knightley | 饰 Loretta McLaughlin
      凯莉·库恩 / Carrie Coon | 饰 Jean Cole
      亚历桑德罗·尼沃拉 / Alessandro Nivola
      大卫·达斯马齐连 / David Dastmalchian
      克里斯·库珀 / Chris Cooper
      罗利·科奇瑞恩 / Rory Cochrane | 饰 Detective Deline
      摩根·斯佩克特 / Morgan Spector
      罗伯特·约翰·伯克 / Robert John Burke | 饰 Eddie Holland
      克里斯·西德贝里 / Kris Sidberry | 饰 Sophie Clark
      乔·林德斯特伦 / Jon Lindstrom | 饰 Doug Berman
      欧文·伯克 / Owen Burke | 饰 Officer Shanley
      詹姆斯·西科内 / James Ciccone | 饰 Det. Linski
      罗布·勒维克 / Rob Lévesque | 饰 Private Club Waiter
      维克多·沃伦 / Victor Warren | 饰 The Director
      玛丽·安·绍布 / Mary Ann Schaub | 饰 Courthouse Clerk
      内森·里奇曼 / Nate Richman | 饰 Patrolman
      查利·瑟斯顿 / Charlie Thurston | 饰 Fritz
      迈克·巴什 / Mike Bash | 饰 Tony Curtis
      约翰·李·艾姆斯 / John Lee Ames | 饰 Harrison
      Josh Drennen Josh Drennen | 饰 Burke
      Ian Lyons Ian Lyons | 饰 Gordon Nielson
      马科·查卡 / Marko Caka | 饰 Waiter
      迈克尔·马尔韦斯蒂 / Michael Malvesti | 饰 Detective Donovan
      比尔·索普 / Bill Thorpe | 饰 Interrogation Detective
      Danielle Perry Danielle Perry | 饰 Nurse Deb McNulty
      罗伯特·C·柯克 / Robert C. Kirk | 饰 Arthur Gully
      托马斯·马里亚诺 / Thomas Mariano | 饰 Prison Guard
      约翰·哈威 / John Hawe | 饰 Copy Boy
      亚美利哥·普雷休蒂 / Americo Presciutti | 饰 City Official
      大卫·布肯德尔 / David Bookbinder | 饰 Reporter
◎编  剧 马特·罗斯金 / Matt Ruskin
◎制  片  人 玛格特·罗比 / Margot Robbie
◎音  乐 保罗·伦纳德·摩根 / Paul Leonard-Morgan
◎摄  影 本·库钦 / Ben Kutchins
◎服  装 阿尔俊·巴辛 / Arjun Bhasin
◎简  介 
  影片聚焦污名昭著的波士顿抹杀者谋杀案:1962年到1964年,13名单身女性在公寓被攻击、性侵、勒死,警方经观察锁定嫌犯Albert DeS alvo,后者认罪被判毕生禁锢,以后在牢狱被人杀死。此案存在诸多疑点,实在的连环杀手和杀戮DeSalvo之人至今还是谜。
  1. Video
  2. ID : 1
  3. Format : HEVC
  4. Format/Info : High Efficiency Video Coding
  5. Format profile : Main 10@L5.1@Main
  6. Codec ID : V_MPEGH/ISO/HEVC
  7. Duration : 1 h 52 min
  8. Bit rate : 15.0 Mb/s
  9. Width : 3 840 pixels
  10. Height : 2 160 pixels
  11. Display aspect ratio : 16:9
  12. Frame rate mode : Constant
  13. Frame rate : 24.000 FPS
  14. Color space : YUV
  15. Chroma subsampling : 4:2:0
  16. Bit depth : 10 bits
  17. Bits/(Pixel*Frame) : 0.075
  18. Stream size : 11.8 GiB (95%)
  19. Language : English
  20. Default : Yes
  21. Forced : No
  22. Audio
  23. ID : 2
  24. Format : E-AC-3 JOC
  25. Format/Info : Enhanced AC-3 with Joint Object Coding
  26. Commercial name : Dolby Digital Plus with Dolby Atmos
  27. Codec ID : A_EAC3
  28. Duration : 1 h 52 min
  29. Bit rate mode : Constant
  30. Bit rate : 768 kb/s
  31. Channel(s) : 6 channels
  32. Channel layout : L R C LFE Ls Rs
  33. Sampling rate : 48.0 kHz
  34. Frame rate : 31.250 FPS (1536 SPF)
  35. Compression mode : Lossy
  36. Delay relative to video : 64 ms
  37. Stream size : 617 MiB (5%)
  38. Language : English
  39. Service kind : Complete Main
  40. Default : Yes
  41. Forced : No
  42. Complexity index : 16
  43. Number of dynamic objects : 15
  44. Bed channel count : 1 channel
  45. Bed channel configuration : LFE
  46. Text #1
  47. ID : 3
  48. Format : UTF-8
  49. Codec ID : S_TEXT/UTF8
  50. Codec ID/Info : UTF-8 Plain Text
  51. Duration : 1 h 41 min
  52. Bit rate : 67 b/s
  53. Frame rate : 0.217 FPS
  54. Count of elements : 1328
  55. Stream size : 50.6 KiB (0%)
  56. Language : English
  57. Default : No
  58. Forced : No
  59. Text #2
  60. ID : 4
  61. Format : UTF-8
  62. Codec ID : S_TEXT/UTF8
  63. Codec ID/Info : UTF-8 Plain Text
  64. Duration : 1 h 42 min
  65. Bit rate : 76 b/s
  66. Frame rate : 0.249 FPS
  67. Count of elements : 1533
  68. Stream size : 57.6 KiB (0%)
  69. Title : SDH
  70. Language : English
  71. Default : No
  72. Forced : No
  73. Text #3
  74. ID : 5
  75. Format : UTF-8
  76. Codec ID : S_TEXT/UTF8
  77. Codec ID/Info : UTF-8 Plain Text
  78. Duration : 1 h 46 min
  79. Bit rate : 56 b/s
  80. Frame rate : 0.199 FPS
  81. Count of elements : 1274
  82. Stream size : 43.9 KiB (0%)
  83. Language : Czech
  84. Default : No
  85. Forced : No
  86. Text #4
  87. ID : 6
  88. Format : UTF-8
  89. Codec ID : S_TEXT/UTF8
  90. Codec ID/Info : UTF-8 Plain Text
  91. Duration : 1 h 46 min
  92. Bit rate : 60 b/s
  93. Frame rate : 0.166 FPS
  94. Count of elements : 1062
  95. Stream size : 47.4 KiB (0%)
  96. Language : Danish
  97. Default : No
  98. Forced : No
  99. Text #5
  100. ID : 7
  101. Format : UTF-8
  102. Codec ID : S_TEXT/UTF8
  103. Codec ID/Info : UTF-8 Plain Text
  104. Duration : 1 h 46 min
  105. Bit rate : 60 b/s
  106. Frame rate : 0.199 FPS
  107. Count of elements : 1273
  108. Stream size : 47.4 KiB (0%)
  109. Language : German
  110. Default : No
  111. Forced : No
  112. Text #6
  113. ID : 8
  114. Format : UTF-8
  115. Codec ID : S_TEXT/UTF8
  116. Codec ID/Info : UTF-8 Plain Text
  117. Duration : 1 h 46 min
  118. Bit rate : 95 b/s
  119. Frame rate : 0.209 FPS
  120. Count of elements : 1335
  121. Stream size : 74.8 KiB (0%)
  122. Language : Greek
  123. Default : No
  124. Forced : No
  125. Text #7
  126. ID : 9
  127. Format : UTF-8
  128. Codec ID : S_TEXT/UTF8
  129. Codec ID/Info : UTF-8 Plain Text
  130. Duration : 1 h 46 min
  131. Bit rate : 57 b/s
  132. Frame rate : 0.208 FPS
  133. Count of elements : 1333
  134. Stream size : 45.3 KiB (0%)
  135. Title : Latin American
  136. Language : Spanish (Latin America)
  137. Default : No
  138. Forced : No
  139. Text #8
  140. ID : 10
  141. Format : UTF-8
  142. Codec ID : S_TEXT/UTF8
  143. Codec ID/Info : UTF-8 Plain Text
  144. Duration : 1 h 46 min
  145. Bit rate : 58 b/s
  146. Frame rate : 0.214 FPS
  147. Count of elements : 1371
  148. Stream size : 46.1 KiB (0%)
  149. Language : Spanish (ES)
  150. Default : No
  151. Forced : No
  152. Text #9
  153. ID : 11
  154. Format : UTF-8
  155. Codec ID : S_TEXT/UTF8
  156. Codec ID/Info : UTF-8 Plain Text
  157. Duration : 1 h 46 min
  158. Bit rate : 61 b/s
  159. Frame rate : 0.215 FPS
  160. Count of elements : 1375
  161. Stream size : 47.9 KiB (0%)
  162. Language : Finnish
  163. Default : No
  164. Forced : No
  165. Text #10
  166. ID : 12
  167. Format : UTF-8
  168. Codec ID : S_TEXT/UTF8
  169. Codec ID/Info : UTF-8 Plain Text
  170. Duration : 1 h 46 min
  171. Bit rate : 62 b/s
  172. Frame rate : 0.214 FPS
  173. Count of elements : 1372
  174. Stream size : 48.9 KiB (0%)
  175. Language : French (FR)
  176. Default : No
  177. Forced : No
  178. Text #11
  179. ID : 13
  180. Format : UTF-8
  181. Codec ID : S_TEXT/UTF8
  182. Codec ID/Info : UTF-8 Plain Text
  183. Duration : 1 h 46 min
  184. Bit rate : 63 b/s
  185. Frame rate : 0.200 FPS
  186. Count of elements : 1283
  187. Stream size : 49.3 KiB (0%)
  188. Language : Hungarian
  189. Default : No
  190. Forced : No
  191. Text #12
  192. ID : 14
  193. Format : UTF-8
  194. Codec ID : S_TEXT/UTF8
  195. Codec ID/Info : UTF-8 Plain Text
  196. Duration : 1 h 46 min
  197. Bit rate : 59 b/s
  198. Frame rate : 0.212 FPS
  199. Count of elements : 1357
  200. Stream size : 46.3 KiB (0%)
  201. Language : Italian
  202. Default : No
  203. Forced : No
  204. Text #13
  205. ID : 15
  206. Format : UTF-8
  207. Codec ID : S_TEXT/UTF8
  208. Codec ID/Info : UTF-8 Plain Text
  209. Duration : 1 h 46 min
  210. Bit rate : 50 b/s
  211. Frame rate : 0.206 FPS
  212. Count of elements : 1316
  213. Stream size : 39.7 KiB (0%)
  214. Language : Japanese
  215. Default : No
  216. Forced : No
  217. Text #14
  218. ID : 16
  219. Format : UTF-8
  220. Codec ID : S_TEXT/UTF8
  221. Codec ID/Info : UTF-8 Plain Text
  222. Duration : 1 h 46 min
  223. Bit rate : 66 b/s
  224. Frame rate : 0.217 FPS
  225. Count of elements : 1390
  226. Stream size : 51.8 KiB (0%)
  227. Language : Korean
  228. Default : No
  229. Forced : No
  230. Text #15
  231. ID : 17
  232. Format : UTF-8
  233. Codec ID : S_TEXT/UTF8
  234. Codec ID/Info : UTF-8 Plain Text
  235. Duration : 1 h 46 min
  236. Bit rate : 56 b/s
  237. Frame rate : 0.175 FPS
  238. Count of elements : 1118
  239. Stream size : 44.3 KiB (0%)
  240. Language : Dutch
  241. Default : No
  242. Forced : No
  243. Text #16
  244. ID : 18
  245. Format : UTF-8
  246. Codec ID : S_TEXT/UTF8
  247. Codec ID/Info : UTF-8 Plain Text
  248. Duration : 1 h 46 min
  249. Bit rate : 55 b/s
  250. Frame rate : 0.161 FPS
  251. Count of elements : 1029
  252. Stream size : 43.1 KiB (0%)
  253. Language : Norwegian
  254. Default : No
  255. Forced : No
  256. Text #17
  257. ID : 19
  258. Format : UTF-8
  259. Codec ID : S_TEXT/UTF8
  260. Codec ID/Info : UTF-8 Plain Text
  261. Duration : 1 h 46 min
  262. Bit rate : 59 b/s
  263. Frame rate : 0.208 FPS
  264. Count of elements : 1333
  265. Stream size : 46.3 KiB (0%)
  266. Language : Polish
  267. Default : No
  268. Forced : No
  269. Text #18
  270. ID : 20
  271. Format : UTF-8
  272. Codec ID : S_TEXT/UTF8
  273. Codec ID/Info : UTF-8 Plain Text
  274. Duration : 1 h 46 min
  275. Bit rate : 56 b/s
  276. Frame rate : 0.206 FPS
  277. Count of elements : 1320
  278. Stream size : 44.3 KiB (0%)
  279. Title : Brazilian
  280. Language : Portuguese (BR)
  281. Default : No
  282. Forced : No
  283. Text #19
  284. ID : 21
  285. Format : UTF-8
  286. Codec ID : S_TEXT/UTF8
  287. Codec ID/Info : UTF-8 Plain Text
  288. Duration : 1 h 46 min
  289. Bit rate : 62 b/s
  290. Frame rate : 0.215 FPS
  291. Count of elements : 1376
  292. Stream size : 48.6 KiB (0%)
  293. Language : Portuguese (PT)
  294. Default : No
  295. Forced : No
  296. Text #20
  297. ID : 22
  298. Format : UTF-8
  299. Codec ID : S_TEXT/UTF8
  300. Codec ID/Info : UTF-8 Plain Text
  301. Duration : 1 h 46 min
  302. Bit rate : 60 b/s
  303. Frame rate : 0.180 FPS
  304. Count of elements : 1153
  305. Stream size : 47.1 KiB (0%)
  306. Language : Romanian
  307. Default : No
  308. Forced : No
  309. Text #21
  310. ID : 23
  311. Format : UTF-8
  312. Codec ID : S_TEXT/UTF8
  313. Codec ID/Info : UTF-8 Plain Text
  314. Duration : 1 h 46 min
  315. Bit rate : 56 b/s
  316. Frame rate : 0.209 FPS
  317. Count of elements : 1341
  318. Stream size : 44.0 KiB (0%)
  319. Language : Slovak
  320. Default : No
  321. Forced : No
  322. Text #22
  323. ID : 24
  324. Format : UTF-8
  325. Codec ID : S_TEXT/UTF8
  326. Codec ID/Info : UTF-8 Plain Text
  327. Duration : 1 h 46 min
  328. Bit rate : 59 b/s
  329. Frame rate : 0.215 FPS
  330. Count of elements : 1375
  331. Stream size : 46.3 KiB (0%)
  332. Language : Swedish
  333. Default : No
  334. Forced : No
  335. Text #23
  336. ID : 25
  337. Format : UTF-8
  338. Codec ID : S_TEXT/UTF8
  339. Codec ID/Info : UTF-8 Plain Text
  340. Duration : 1 h 46 min
  341. Bit rate : 62 b/s
  342. Frame rate : 0.183 FPS
  343. Count of elements : 1171
  344. Stream size : 48.7 KiB (0%)
  345. Language : Turkish
  346. Default : No
  347. Forced : No
  348. Text #24
  349. ID : 26
  350. Format : UTF-8
  351. Codec ID : S_TEXT/UTF8
  352. Codec ID/Info : UTF-8 Plain Text
  353. Duration : 1 h 46 min
  354. Bit rate : 54 b/s
  355. Frame rate : 0.218 FPS
  356. Count of elements : 1394
  357. Stream size : 42.8 KiB (0%)
  358. Title : Hong Kong
  359. Language : Chinese (HK)
  360. Default : No
  361. Forced : No
  362. Text #25
  363. ID : 27
  364. Format : UTF-8
  365. Codec ID : S_TEXT/UTF8
  366. Codec ID/Info : UTF-8 Plain Text
  367. Duration : 1 h 46 min
  368. Bit rate : 56 b/s
  369. Frame rate : 0.217 FPS
  370. Count of elements : 1390
  371. Stream size : 44.2 KiB (0%)
  372. Title : Simplified
  373. Language : Chinese (Simplied)
  374. Default : No
  375. Forced : No
  376. Text #26
  377. ID : 28
  378. Format : UTF-8
  379. Codec ID : S_TEXT/UTF8
  380. Codec ID/Info : UTF-8 Plain Text
  381. Duration : 1 h 46 min
  382. Bit rate : 53 b/s
  383. Frame rate : 0.218 FPS
  384. Count of elements : 1394
  385. Stream size : 41.8 KiB (0%)
  386. Title : Traditional
  387. Language : Chinese (Traditional)
  388. Default : No
  389. Forced : No
  390. Menu
  391. 01:45:22.439 : en:Credits
复制代码











Boston.Strangler.2023.2160p.HULU.WEB-DL.x265.10bit.SDR.DDP5.1.Atmos-FLUX.torrent (16.13 KB, 下载次数: 9, 售价: 2 枚蓝光币)
回复

使用道具 举报

蓝光币
0 枚
发表于 2023-3-18 14:12:44 | 显示全部楼层

楼主太厉害了!楼主,电影应该很好看我觉得中国高清电影网真是个好地方!
回复

使用道具 举报

懒得打字嘛,点击右侧快捷回复 【右侧内容,后台自定义】
您需要登录后才可以回帖 登录 | 立即注册

本版积分规则

Archiver|手机版|小黑屋| 中国高清网  |网站地图

GMT+8, 2024-4-13 21:29 , Processed in 0.459674 second(s), 27 queries .

Powered by HDchina X3.4

Copyright 2017-2019©HDchina.All right reserved

返回顶部 联系我们