查看: 33|回复: 1

[2160p] 炼狱机器 The.Infernal.Machine.2022.2160p.WEB-DL.DD5.1.DV.MP4.x265-DVSUX 11.46GB

[复制链接]
蓝光币
44 枚
发表于 6 天前 | 显示全部楼层 |阅读模式
[img][/img]

◎译  名 炼狱机械
◎片  名 The Infernal Machine
◎年  代 2022
◎产  地 美国 / 英国
◎类  别 剧情 / 悬疑 / 惊悚 / 可骇
◎语  言 英语
◎上映日期 2022-09-23(美国)
◎IMDb链接 https://www.imdb.com/title/tt15275256/
◎豆瓣链接 https://movie.douban.com/subject/36006701/
◎导  演 安德鲁·亨特 Andrew Hunt (id:1477097)
◎编  剧 安德鲁·亨特 Andrew Hunt (id:1477097)
◎演  员 爱丽丝·伊芙 Alice Eve (id:1004565)
       盖·皮尔斯 Guy Pearce (id:1035672)
       亚历克斯·帕蒂弗 Alex Pettyfer (id:1035645)
       艾瑞斯·卡亚特 Iris Cayatte (id:1470524)
       安娜洛佩斯 Ana Lopes (id:1244353)
       乔治娅·古德曼 Georgia Goodman (id:1392804)
       艾薇儿·拉维尼 Avril Lavigne (id:1000037)
       凯特·卡普肖 Kate Capshaw (id:1040572)
◎简  介

  隐居且有争议的作家布鲁斯·科伯恩(BruceCogburn)被一位痴迷的粉丝从隐藏中拉了出来,迫使这位小说家面临他以为可以逃离的曩昔,并诠释他畅销书几十年前激发的事务。科伯恩寻觅谁是他所遭受的操纵和精神熬煎的幕后黑手,致使了一场布满恐惧和危险的感情过山车之旅,在那边,工作并不总是像概况上那样清楚,曩昔的行为能够会发生可怕的结果。
  1. Video
  2. ID                                       : 1
  3. Format                                   : HEVC
  4. Format/Info                              : High Efficiency Video Coding
  5. Format profile                           : Main [email protected]@High
  6. HDR format                               : Dolby Vision, Version 1.0, dvhe.05.06, BL+RPU
  7. Codec ID                                 : dvhe
  8. Codec ID/Info                            : High Efficiency Video Coding with Dolby Vision
  9. Duration                                 : 1 h 51 min
  10. Bit rate                                 : 14.4 Mb/s
  11. Width                                    : 3 840 pixels
  12. Height                                   : 1 608 pixels
  13. Original height                          : 1 606 pixels
  14. Display aspect ratio                     : 2.40:1
  15. Original display aspect ratio            : 2.40:1
  16. Frame rate mode                          : Constant
  17. Frame rate                               : 23.976 (24000/1001/189150) FPS
  18. Color space                              : YUV
  19. Chroma subsampling                       : 4:2:0
  20. Bit depth                                : 10 bits
  21. Bits/(Pixel*Frame)                       : 0.097
  22. Stream size                              : 11.2 GiB (97%)
  23. Default                                  : Yes
  24. Alternate group                          : 1
  25. Encoded date                             : UTC 2022-09-23 04:41:35
  26. Tagged date                              : UTC 2022-09-23 04:44:46
  27. Codec configuration box                  : hvcC+dvcC
  28. Audio
  29. ID                                       : 2
  30. Format                                   : AC-3
  31. Format/Info                              : Audio Coding 3
  32. Commercial name                          : Dolby Digital
  33. Codec ID                                 : ac-3
  34. Duration                                 : 1 h 51 min
  35. Bit rate mode                            : Constant
  36. Bit rate                                 : 384 kb/s
  37. Maximum bit rate                         : 406 kb/s
  38. Channel(s)                               : 6 channels
  39. Channel layout                           : L R C LFE Ls Rs
  40. Sampling rate                            : 48.0 kHz
  41. Frame rate                               : 31.250 FPS (1536 SPF)
  42. Compression mode                         : Lossy
  43. Stream size                              : 305 MiB (3%)
  44. Title                                    : English
  45. Language                                 : English
  46. Service kind                             : Complete Main
  47. Default                                  : Yes
  48. Alternate group                          : 1
  49. Tagged date                              : UTC 2022-09-23 04:44:46
  50. Text #1
  51. ID                                       : 3
  52. Format                                   : Timed Text
  53. Codec ID                                 : tx3g
  54. Duration                                 : 1 h 50 min
  55. Bit rate mode                            : Variable
  56. Bit rate                                 : 72 b/s
  57. Frame rate                               : 0.429 FPS
  58. Stream size                              : 58.7 KiB (0%)
  59. Title                                    : English
  60. Language                                 : English
  61. Forced                                   : No
  62. Encoded date                             : UTC 2022-09-23 04:44:46
  63. Tagged date                              : UTC 2022-09-23 04:44:46
  64. Text #2
  65. ID                                       : 4
  66. Format                                   : Timed Text
  67. Codec ID                                 : tx3g
  68. Duration                                 : 1 h 50 min
  69. Bit rate mode                            : Variable
  70. Bit rate                                 : 62 b/s
  71. Frame rate                               : 0.352 FPS
  72. Stream size                              : 50.7 KiB (0%)
  73. Title                                    : English
  74. Language                                 : English
  75. Forced                                   : No
  76. Encoded date                             : UTC 2022-09-23 04:44:46
  77. Tagged date                              : UTC 2022-09-23 04:44:46
复制代码




                                       
                                       

                                       
                                       
                                       




The.Infernal.Machine.2022.2160p.WEB-DL.DD5.1.DV.MP4.x265-DVSUX.torrent (14.98 KB, 下载次数: 1)
回复

使用道具 举报

懒得打字嘛,点击右侧快捷回复 【右侧内容,后台自定义】
您需要登录后才可以回帖 登录 | 立即注册

本版积分规则

Archiver|手机版|小黑屋| 中国高清网 |网站地图 

GMT+8, 2022-9-29 12:25 , Processed in 0.087048 second(s), 26 queries .

Powered by HDchina X3.4

Copyright 2017-2019©HDchina.All right reserved

返回顶部 联系我们