查看: 373|回复: 2

[10bit.HDR] 狼嚎/潜航核战 The.Wolfs.Call.2019.FRENCH.2160p.UHD.BluRay.x265.10bit.HDR.DTS-HD.MA.TrueHD.7.1.Atmos-SWTYBLZ 15.86GB

[复制链接]

已抛锚 成长值: 11955

级别:资源管理组

注册时间
2017-10-20
最后登录
2022-5-9
听众
1
收听
0
主题
108287
蓝光币
241495 枚
贡献
21715 点
发表于 2021-1-24 16:08:12 | 显示全部楼层 |阅读模式



译  名 狼嚎 / The Song of the Wolf / The Wolf's Call / 潜航核战(港) / 潜舰追缉(台) / 狼之歌
片  名 Le chant du loup
年  代 2019
产  地 法国
类  别 战争 / 灾难
语  言 法语
上映日期 2019-02-20(法国)
IMDb评分  6.9/10 from 11214 users
IMDb链接  https://www.imdb.com/title/tt7458762
豆瓣评分 7.2/10 from 6598 users
豆瓣链接 https://movie.douban.com/subject/27150283/
片  长 116分钟
导  演 阿贝尔·安扎克 Abel Lanzac
编  剧 阿贝尔·安扎克 Abel Lanzac
主  演 弗朗索瓦·西维尔 François Civil
       奥玛·希 Omar Sy
       马修·卡索维茨 Mathieu Kassovitz
       勒达·卡代布 Reda Kateb
       葆拉·贝尔 Paula Beer
       亚力克西斯·马沙利克 Alexis·Michalik
       让-伊夫·贝特鲁 Jean-Yves Berteloot
       达米安·勃纳尔 Damien Bonnard


标  签 战争 | 潜艇 | 法国 | 军事 | 2019 | 灾难 | 剧情 | 科幻

简  介  

  一个年轻人有一种罕有的礼物,可以识别他听到的每一个声音。在一艘法国核潜艇上,一切都依靠于他,金耳朵。
  看上去绝对牢靠,他犯了一个毛病,让船员处于灭亡的危险当中。他希望重新获得同道的信赖,但他的追求会让他们堕入加倍戏剧化的地步。
  在核威慑和毛病信息的天下中,他们发现自己被困在一个没法控制的装备中。

获奖情况  

  第45届法国凯撒电影奖(2020)
  最好童贞作(提名) Antonin Baudry
  最好音效
  最好布景(提名)
  1. Video
  2. ID                                       : 1
  3. Format                                   : HEVC
  4. Format/Info                              : High Efficiency Video Coding
  5. Format profile                           : Main [email protected]@High
  6. HDR format                               : SMPTE ST 2086, HDR10 compatible
  7. Codec ID                                 : V_MPEGH/ISO/HEVC
  8. Duration                                 : 1 h 55 min
  9. Bit rate                                 : 11.0 Mb/s
  10. Width                                    : 3 840 pixels
  11. Height                                   : 1 608 pixels
  12. Display aspect ratio                     : 2.40:1
  13. Frame rate mode                          : Constant
  14. Frame rate                               : 23.976 (24000/1001/45775) FPS
  15. Color space                              : YUV
  16. Chroma subsampling                       : 4:2:0 (Type 2)
  17. Bit depth                                : 10 bits
  18. Bits/(Pixel*Frame)                       : 0.074
  19. Stream size                              : 8.91 GiB (57%)
  20. Writing liary                          : x265 3.1+1-dcd4c18582fb:[Windows][MSVC 1900][64 bit] 10bit
  21. Encoding settings                        : cpuid=1176575 / frame-threads=5 / numa-pools=36 / wpp / no-pmode / no-pme / no-psnr / no-ssim / log-level=2 / input-csp=1 / input-res=3840x1608 / interlace=0 / total-frames=166768 / level-idc=51 / high-tier=1 / uhd-bd=0 / ref=4 / no-allow-non-conformance / repeat-headers / annexb / aud / hrd / info / hash=0 / no-temporal-layers / no-open-gop / min-keyint=24 / keyint=240 / gop-lookahead=0 / bframes=4 / b-adapt=2 / b-pyramid / bframe-bias=0 / rc-lookahead=25 / lookahead-slices=4 / scenecut=40 / radl=0 / no-splice / no-intra-refresh / ctu=64 / min-cu-size=8 / rect / no-amp / max-tu-size=32 / tu-inter-depth=1 / tu-intra-depth=1 / limit-tu=0 / rdoq-level=2 / dynamic-rd=0.00 / no-ssim-rd / signhide / no-tskip / nr-intra=0 / nr-inter=0 / no-constrained-intra / no-strong-intra-smoothing / max-merge=3 / limit-refs=3 / limit-modes / me=3 / subme=3 / merange=57 / temporal-mvp / weightp / no-weightb / no-analyze-src-pics / deblock=-3:-3 / no-sao / no-sao-non-deblock / rd=4 / no-early-skip / rskip / no-fast-intra / no-tskip-fast / no-cu-lossless / no-b-intra / no-splitrd-skip / rdpenalty=0 / psy-rd=2.00 / psy-rdoq=1.00 / no-rd-refine / no-lossless / cbqpoffs=0 / crqpoffs=0 / rc=crf / crf=17.0 / qcomp=0.60 / qpstep=4 / stats-write=0 / stats-read=0 / vbv-maxrate=160000 / vbv-bufsize=160000 / vbv-init=0.9 / crf-max=0.0 / crf-min=0.0 / ipratio=1.40 / patio=1.30 / aq-mode=2 / aq-strength=1.00 / cutree / zone-count=0 / no-strict-c / qg-size=32 / no-rc-grain / qpmax=69 / qpmin=0 / no-const-vbv / sar=1 / overscan=0 / videoformat=5 / range=0 / colorprim=9 / transfer=16 / colormatrix=9 / chromaloc=1 / chromaloc-top=2 / chromaloc-bottom=2 / display-window=0 / master-display=G(8500,39850)B(6550,2300)R(35400,14600)WP(15635,16450)L(10000000,50)cll=1000,300 / min-luma=0 / max-luma=1023 / log2-max-poc-lsb=8 / vui-timing-info / vui-hrd-info / slices=1 / no-opt-qp-pps / no-opt-ref-list-length-pps / no-multi-pass-opt-rps / scenecut-bias=0.05 / no-opt-cu-delta-qp / no-aq-motion / hdr / hdr-opt / no-dhdr10-opt / no-idr-recovery-sei / analysis-reuse-level=5 / scale-factor=0 / refine-intra=0 / refine-inter=0 / refine-mv=0 / refine-ctu-distortion=0 / no-limit-sao / ctu-info=0 / no-lowpass-dct / refine-analysis-type=234881038 / copy-pic=1 / max-ausize-factor=1.0 / no-dynamic-refine / no-single-sei / no-hevc-aq / no-svt / no-field / qp-adaptation-range=1.00
  22. Language                                 : French
  23. Default                                  : Yes
  24. Forced                                   : No
  25. Color range                              : Limited
  26. Color primaries                          : BT.2020
  27. Transfer characteristics                 : PQ
  28. Matrix coefficients                      : BT.2020 non-constant
  29. Mastering display color primaries        : BT.2020
  30. Mastering display luminance              : min: 0.0050 cd/m2, max: 1000 cd/m2
  31. Maximum Content Light Level              : 1000 cd/m2
  32. Maximum Frame-Average Light Level        : 300 cd/m2

  33. Audio #1
  34. ID                                       : 2
  35. Format                                   : MLP FBA 16-ch
  36. Format/Info                              : Meridian Lossless Packing FBA with 16-channel presentation
  37. Commercial name                          : Dolby TrueHD with Dolby Atmos
  38. Codec ID                                 : A_TRUEHD
  39. Duration                                 : 1 h 55 min
  40. Bit rate mode                            : Variable
  41. Bit rate                                 : 3 635 kb/s
  42. Maximum bit rate                         : 5 967 kb/s
  43. Channel(s)                               : 8 channels
  44. Channel layout                           : L R C LFE Ls Rs Lb Rb
  45. Sampling rate                            : 48.0 kHz
  46. Frame rate                               : 1 200.000 FPS (40 SPF)
  47. Compression mode                         : Lossless
  48. Stream size                              : 2.94 GiB (19%)
  49. Title                                    : TrueHD 7.1. Atmos
  50. Language                                 : French
  51. Default                                  : Yes
  52. Forced                                   : No
  53. Number of dynamic objects                : 11
  54. Bed channel count                        : 1 channel
  55. Bed channel configuration                : LFE

  56. Audio #2
  57. ID                                       : 3
  58. Format                                   : DTS XLL
  59. Format/Info                              : Digital Theater Systems
  60. Commercial name                          : DTS-HD Master Audio
  61. Codec ID                                 : A_DTS
  62. Duration                                 : 1 h 55 min
  63. Bit rate mode                            : Variable
  64. Bit rate                                 : 4 095 kb/s
  65. Channel(s)                               : 8 channels
  66. Channel layout                           : C L R LFE Lb Rb Lss Rss
  67. Sampling rate                            : 48.0 kHz
  68. Frame rate                               : 93.750 FPS (512 SPF)
  69. Bit depth                                : 24 bits
  70. Compression mode                         : Lossless
  71. Stream size                              : 3.32 GiB (21%)
  72. Title                                    : DTS-HD MA 7.1
  73. Language                                 : French
  74. Default                                  : No
  75. Forced                                   : No

  76. Audio #3
  77. ID                                       : 4
  78. Format                                   : AC-3
  79. Format/Info                              : Audio Coding 3
  80. Commercial name                          : Dolby Digital
  81. Codec ID                                 : A_AC3
  82. Duration                                 : 1 h 55 min
  83. Bit rate mode                            : Constant
  84. Bit rate                                 : 640 kb/s
  85. Channel(s)                               : 6 channels
  86. Channel layout                           : L R C LFE Ls Rs
  87. Sampling rate                            : 48.0 kHz
  88. Frame rate                               : 31.250 FPS (1536 SPF)
  89. Compression mode                         : Lossy
  90. Stream size                              : 531 MiB (3%)
  91. Title                                    : DD 5.1
  92. Language                                 : French
  93. Service kind                             : Complete Main
  94. Default                                  : No
  95. Forced                                   : No

  96. Text #1
  97. ID                                       : 5
  98. Format                                   : UTF-8
  99. Codec ID                                 : S_TEXT/UTF8
  100. Codec ID/Info                            : UTF-8 Plain Text
  101. Duration                                 : 1 h 54 min
  102. Bit rate                                 : 37 b/s
  103. Count of elements                        : 1167
  104. Stream size                              : 31.3 KiB (0%)
  105. Title                                    : English-SRT
  106. Language                                 : English
  107. Default                                  : Yes
  108. Forced                                   : No

  109. Text #2
  110. ID                                       : 6
  111. Format                                   : PGS
  112. Muxing mode                              : zlib
  113. Codec ID                                 : S_HDMV/PGS
  114. Codec ID/Info                            : Picture based subtitle format used on BDs/HD-DVDs
  115. Duration                                 : 1 h 54 min
  116. Bit rate                                 : 30.8 kb/s
  117. Count of elements                        : 3258
  118. Stream size                              : 25.3 MiB (0%)
  119. Title                                    : French-PGS
  120. Language                                 : French
  121. Default                                  : No
  122. Forced                                   : No

  123. Menu
  124. 00:00:00.000                             : :Chapitre 01
  125. 00:12:02.138                             : :Chapitre 02
  126. 00:22:56.792                             : :Chapitre 03
  127. 00:32:05.090                             : :Chapitre 04
  128. 00:40:23.880                             : :Chapitre 05
  129. 00:51:37.594                             : :Chapitre 06
  130. 01:01:48.997                             : :Chapitre 07
  131. 01:12:54.662                             : :Chapitre 08
  132. 01:19:21.131                             : :Chapitre 09
  133. 01:28:48.949                             : :Chapitre 10
  134. 01:39:49.567                             : :Chapitre 11
  135. 01:49:54.421                             : :Chapitre 12
复制代码




























本帖隐藏的下载地址需要VIP会员才可阅读,您需要升级才可阅读,点击这里升级VIP
回复

使用道具 举报

级别:尊贵的会员

注册时间
2021-1-30
最后登录
2021-2-1
听众
0
收听
0
主题
0
蓝光币
1 枚
贡献
0 点
发表于 2021-2-1 08:47:07 | 显示全部楼层
vip升级不了啊啊
回复

使用道具 举报

级别:初级观众 Lv.1

注册时间
2021-2-1
最后登录
2021-2-1
听众
0
收听
0
主题
0
蓝光币
1 枚
贡献
0 点
QQ
发表于 2021-2-1 14:09:54 | 显示全部楼层
楼主发贴辛苦了,谢谢楼主分享!我觉得中国高清电影网是注册对了!
回复

使用道具 举报

懒得打字嘛,点击右侧快捷回复 【右侧内容,后台自定义】
您需要登录后才可以回帖 登录 | 立即注册

本版积分规则

Archiver|手机版|小黑屋| 中国高清网 |网站地图 

GMT+8, 2022-5-18 04:44 , Processed in 0.107545 second(s), 29 queries .

Powered by HDchina X3.4

Copyright 2017-2019©HDchina.All right reserved

返回顶部 联系我们