查看: 634|回复: 13

[10bit.SDR] 星际探索/星际任务 Ad.Astra.2019.2160p.BluRay.x265.10bit.SDR.DTS-HD.MA.TrueHD.7.1.Atmos-SWTYBLZ 45.97GB

[复制链接]

 成长值: 3810

级别:资源管理组

注册时间
2017-10-20
最后登录
2020-1-19
听众
1
收听
0
主题
90464
蓝光币
82860 枚
贡献
14826 点
发表于 2019-12-9 22:13:13 | 显示全部楼层 |阅读模式
星际摸索/星际使命 Ad.Astra.2019.2160p.BluRay.x265.10bit.SDR.DTS-HD.MA.TrueHD.7.1.Atmos-SWTYBLZ 45.97GB-1.png

译  名 星际摸索 / 星际使命(港) / 星际探险 / 星际救济(台)
片  名 Ad Astra
年  代 2019
产  地 美国
类  别 科幻 / 悬疑 / 冒险 / 灾难
语  言 英语
上映日期 2019-08-29(威尼斯电影节) / 2019-09-20(美国) / 2019-12-06(中国大陆)
IMDb评分  7.0/10 from 68398 users
IMDb链接  https://www.imdb.com/title/tt2935510
豆瓣评分 6.8/10 from 4215 users
豆瓣链接 https://movie.douban.com/subject/24716039/
片  长 124分钟
导  演 詹姆士·格雷 James Gray
编  剧 詹姆士·格雷 James Gray / 伊森·格罗斯 Ethan Gross
主  演 布拉德·皮特 Brad Pitt
       汤米·李·琼斯 Tommy Lee Jones
       鲁丝·内伽 Ruth Negga
       唐纳德·萨瑟兰 Donald Sutherland
       丽芙·泰勒 Liv Tyler
       肖恩·布莱克默 Sean Blakemore
       约翰·芬 John Finn
       杰米·肯尼迪 Jamie Kennedy
       格雷格·布瑞克 Greg Bryk
       吉米·希尔兹 Kimmy Shields
       丽莎·盖伊·汉密尔顿 Lisa Gay Hamilton
       劳恩·迪恩 Loren Dean
       约翰·奥提兹 John Ortiz
       金伯莉·伊丽丝 Kimberly Elise
       丹尼尔·萨乌利 Daniel Sauli
       安妮·麦克代尼尔斯 Anne McDaniels
       艾莉森·瑞德 Alyson Reed
       唐尼·科沙瓦茨 Donnie Keshawarz
       马洛里露 Mallory Low
       希拉·M·洛克哈特 Sheila M. Lockhart


标  签 科幻 | 太空 | 宇宙 | 美国 | 2019 | 冒险 | 惊悚 | 星际

简  介  

  地球上接连出现奥秘怪象,科学家发现某种失控的反物资反应正在威胁全部太阳系,人类保存极端堪忧……地球生死攸关之际,天赋航天工程师罗伊(布拉德·皮特 饰)被派往外太空,试图揭开谜团拯救人类。这是一场横跨地球、月球、火星、海王星,穿越全部太阳系的硬核冒险,一路危机重重险象环生,罗伊直面爆炸、陨石、月球飙车枪战、奥秘生物等意想不到的考验,还找回了失联20年的父亲!昔时罗伊的父亲(汤米·李·琼斯 饰)分开地球探访外星聪明生物,成果使命失利,消失在茫茫宇宙当中。现在父子重逢,罗伊在太空深处发现了不为人知的奥秘,渐渐触达一切事务的终极真相……

获奖情况  

  第76届威尼斯电影节(2019)
  主比赛单元 金狮奖 (提名) 詹姆斯·格雷
  1. Video
  2. ID                                       : 1
  3. Format                                   : HEVC
  4. Format/Info                              : High Efficiency Video Coding
  5. Format profile                           : Main High@L4@High
  6. Codec ID                                 : V_MPEGH/ISO/HEVC
  7. Duration                                 : 2 h 3 min
  8. Bit rate                                 : 45.5 Mb/s
  9. Width                                    : 3 840 pixels
  10. Height                                   : 1 608 pixels
  11. Display aspect ratio                     : 2.40:1
  12. Frame rate mode                          : Constant
  13. Frame rate                               : 23.976 (24000/1001) FPS
  14. Color space                              : YUV
  15. Chroma subsampling                       : 4:2:0
  16. Bit depth                                : 10 bits
  17. Bits/(Pixel*Frame)                       : 0.307
  18. Stream size                              : 39.1 GiB (85%)
  19. Title                                    : Ad.Astra.2019.2160p.BluRay.x265.10bit.SDR.DTS-HD.MA.TrueHD.7.1.Atmos-SWTYBLZ
  20. Writing library                          : x265 3.0ed72af837053:[Windows][GCC 8.2.0][64 bit] 10bit
  21. Encoding settings                        : cpuid=1111039 / frame-threads=16 / numa-pools=44,44 / wpp / no-pmode / no-pme / no-psnr / no-ssim / log-level=2 / input-csp=1 / input-res=3840x1608 / interlace=0 / total-frames=177000 / level-idc=51 / high-tier=1 / uhd-bd=0 / ref=3 / no-allow-non-conformance / repeat-headers / annexb / aud / hrd / info / hash=0 / no-temporal-layers / no-open-gop / min-keyint=1 / keyint=24 / gop-lookahead=0 / bframes=4 / b-adapt=2 / b-pyramid / bframe-bias=0 / rc-lookahead=25 / lookahead-slices=4 / scenecut=40 / radl=0 / no-splice / no-intra-refresh / ctu=64 / min-cu-size=8 / no-rect / no-amp / max-tu-size=32 / tu-inter-depth=1 / tu-intra-depth=1 / limit-tu=0 / rdoq-level=0 / dynamic-rd=0.00 / no-ssim-rd / signhide / no-tskip / nr-intra=0 / nr-inter=0 / no-constrained-intra / strong-intra-smoothing / max-merge=2 / limit-refs=3 / no-limit-modes / me=1 / subme=2 / merange=57 / temporal-mvp / weightp / no-weightb / no-analyze-src-pics / deblock=0:0 / no-sao / no-sao-non-deblock / rd=3 / no-early-skip / rskip / no-fast-intra / no-tskip-fast / no-cu-lossless / no-b-intra / no-splitrd-skip / rdpenalty=0 / psy-rd=2.00 / psy-rdoq=0.00 / no-rd-refine / no-lossless / cbqpoffs=0 / crqpoffs=0 / rc=crf / crf=16.0 / qcomp=0.60 / qpstep=4 / stats-write=0 / stats-read=0 / vbv-maxrate=160000 / vbv-bufsize=160000 / vbv-init=0.9 / crf-max=0.0 / crf-min=0.0 / ipratio=1.40 / pbratio=1.30 / aq-mode=1 / aq-strength=1.00 / cutree / zone-count=0 / no-strict-cbr / qg-size=32 / no-rc-grain / qpmax=69 / qpmin=0 / no-const-vbv / sar=1 / overscan=0 / videoformat=5 / range=0 / colorprim=2 / transfer=2 / colormatrix=2 / chromaloc=0 / display-window=0 / max-cll=0,0 / min-luma=0 / max-luma=1023 / log2-max-poc-lsb=8 / vui-timing-info / vui-hrd-info / slices=1 / opt-qp-pps / opt-ref-list-length-pps / no-multi-pass-opt-rps / scenecut-bias=0.05 / no-opt-cu-delta-qp / no-aq-motion / no-hdr / no-hdr-opt / no-dhdr10-opt / no-idr-recovery-sei / analysis-reuse-level=5 / scale-factor=0 / refine-intra=0 / refine-inter=0 / refine-mv=0 / refine-ctu-distortion=0 / no-limit-sao / ctu-info=0 / no-lowpass-dct / refine-analysis-type=0 / copy-pic=1 / max-ausize-factor=1.0 / no-dynamic-refine / no-single-sei / no-hevc-aq / qp-adaptation-range=1.00
  22. Default                                  : Yes
  23. Forced                                   : No

  24. Audio #1
  25. ID                                       : 2
  26. Format                                   : MLP FBA 16-ch
  27. Format/Info                              : Meridian Lossless Packing FBA with 16-channel presentation
  28. Commercial name                          : Dolby TrueHD with Dolby Atmos
  29. Codec ID                                 : A_TRUEHD
  30. Duration                                 : 2 h 3 min
  31. Bit rate mode                            : Variable
  32. Bit rate                                 : 3 388 kb/s
  33. Maximum bit rate                         : 6 165 kb/s
  34. Channel(s)                               : 8 channels
  35. Channel layout                           : L R C LFE Ls Rs Lb Rb
  36. Sampling rate                            : 48.0 kHz
  37. Frame rate                               : 1 200.000 FPS (40 SPF)
  38. Compression mode                         : Lossless
  39. Stream size                              : 2.91 GiB (6%)
  40. Title                                    : Ad.Astra.2019.2160p.BluRay.x265.10bit.SDR.DTS-HD.MA.TrueHD.7.1.Atmos-SWTYBLZ
  41. Language                                 : English
  42. Default                                  : Yes
  43. Forced                                   : No
  44. Number of dynamic objects                : 13
  45. Bed channel count                        : 1 channel
  46. Bed channel configuration                : LFE

  47. Audio #2
  48. ID                                       : 3
  49. Format                                   : DTS XLL
  50. Format/Info                              : Digital Theater Systems
  51. Commercial name                          : DTS-HD Master Audio
  52. Codec ID                                 : A_DTS
  53. Duration                                 : 2 h 3 min
  54. Bit rate mode                            : Variable
  55. Bit rate                                 : 3 627 kb/s
  56. Channel(s)                               : 8 channels
  57. Channel layout                           : C L R LFE Lb Rb Lss Rss
  58. Sampling rate                            : 48.0 kHz
  59. Frame rate                               : 93.750 FPS (512 SPF)
  60. Bit depth                                : 24 bits
  61. Compression mode                         : Lossless
  62. Stream size                              : 3.12 GiB (7%)
  63. Title                                    : Ad.Astra.2019.2160p.BluRay.x265.10bit.SDR.DTS-HD.MA.TrueHD.7.1.Atmos-SWTYBLZ
  64. Language                                 : English
  65. Default                                  : No
  66. Forced                                   : No

  67. Audio #3
  68. ID                                       : 4
  69. Format                                   : AC-3
  70. Format/Info                              : Audio Coding 3
  71. Commercial name                          : Dolby Digital
  72. Codec ID                                 : A_AC3
  73. Duration                                 : 2 h 3 min
  74. Bit rate mode                            : Constant
  75. Bit rate                                 : 640 kb/s
  76. Channel(s)                               : 6 channels
  77. Channel layout                           : L R C LFE Ls Rs
  78. Sampling rate                            : 48.0 kHz
  79. Frame rate                               : 31.250 FPS (1536 SPF)
  80. Bit depth                                : 16 bits
  81. Compression mode                         : Lossy
  82. Stream size                              : 563 MiB (1%)
  83. Title                                    : Ad.Astra.2019.2160p.BluRay.x265.10bit.SDR.DTS-HD.MA.TrueHD.7.1.Atmos-SWTYBLZ
  84. Language                                 : English
  85. Service kind                             : Complete Main
  86. Default                                  : No
  87. Forced                                   : No

  88. Text #1
  89. ID                                       : 5
  90. Format                                   : UTF-8
  91. Codec ID                                 : S_TEXT/UTF8
  92. Codec ID/Info                            : UTF-8 Plain Text
  93. Duration                                 : 1 h 50 min
  94. Bit rate                                 : 44 b/s
  95. Count of elements                        : 1258
  96. Stream size                              : 36.1 KiB (0%)
  97. Title                                    : English-SRT
  98. Language                                 : English
  99. Default                                  : Yes
  100. Forced                                   : No

  101. Text #2
  102. ID                                       : 6
  103. Format                                   : UTF-8
  104. Codec ID                                 : S_TEXT/UTF8
  105. Codec ID/Info                            : UTF-8 Plain Text
  106. Duration                                 : 1 h 50 min
  107. Bit rate                                 : 50 b/s
  108. Count of elements                        : 1389
  109. Stream size                              : 41.1 KiB (0%)
  110. Title                                    : English-SDH-SRT
  111. Language                                 : English
  112. Default                                  : No
  113. Forced                                   : No

  114. Text #3
  115. ID                                       : 7
  116. Format                                   : PGS
  117. Muxing mode                              : zlib
  118. Codec ID                                 : S_HDMV/PGS
  119. Codec ID/Info                            : Picture based subtitle format used on BDs/HD-DVDs
  120. Duration                                 : 1 h 50 min
  121. Bit rate                                 : 36.0 kb/s
  122. Count of elements                        : 2786
  123. Stream size                              : 28.5 MiB (0%)
  124. Title                                    : English-PGS
  125. Language                                 : English
  126. Default                                  : No
  127. Forced                                   : No

  128. Text #4
  129. ID                                       : 8
  130. Format                                   : PGS
  131. Muxing mode                              : zlib
  132. Codec ID                                 : S_HDMV/PGS
  133. Codec ID/Info                            : Picture based subtitle format used on BDs/HD-DVDs
  134. Duration                                 : 2 h 2 min
  135. Bit rate                                 : 22.6 kb/s
  136. Count of elements                        : 2154
  137. Stream size                              : 19.7 MiB (0%)
  138. Title                                    : Czech-PGS
  139. Language                                 : Czech
  140. Default                                  : No
  141. Forced                                   : No

  142. Text #5
  143. ID                                       : 9
  144. Format                                   : PGS
  145. Muxing mode                              : zlib
  146. Codec ID                                 : S_HDMV/PGS
  147. Codec ID/Info                            : Picture based subtitle format used on BDs/HD-DVDs
  148. Duration                                 : 2 h 1 min
  149. Bit rate                                 : 22.8 kb/s
  150. Count of elements                        : 1706
  151. Stream size                              : 19.9 MiB (0%)
  152. Title                                    : Danish-PGS
  153. Language                                 : Danish
  154. Default                                  : No
  155. Forced                                   : No

  156. Text #6
  157. ID                                       : 10
  158. Format                                   : PGS
  159. Muxing mode                              : zlib
  160. Codec ID                                 : S_HDMV/PGS
  161. Codec ID/Info                            : Picture based subtitle format used on BDs/HD-DVDs
  162. Duration                                 : 2 h 1 min
  163. Bit rate                                 : 21.8 kb/s
  164. Count of elements                        : 1876
  165. Stream size                              : 19.0 MiB (0%)
  166. Title                                    : Dutch-PGS
  167. Language                                 : Dutch
  168. Default                                  : No
  169. Forced                                   : No

  170. Text #7
  171. ID                                       : 11
  172. Format                                   : PGS
  173. Muxing mode                              : zlib
  174. Codec ID                                 : S_HDMV/PGS
  175. Codec ID/Info                            : Picture based subtitle format used on BDs/HD-DVDs
  176. Duration                                 : 2 h 2 min
  177. Bit rate                                 : 24.2 kb/s
  178. Count of elements                        : 2156
  179. Stream size                              : 21.2 MiB (0%)
  180. Title                                    : Finnish-PGS
  181. Language                                 : Finnish
  182. Default                                  : No
  183. Forced                                   : No

  184. Text #8
  185. ID                                       : 12
  186. Format                                   : PGS
  187. Muxing mode                              : zlib
  188. Codec ID                                 : S_HDMV/PGS
  189. Codec ID/Info                            : Picture based subtitle format used on BDs/HD-DVDs
  190. Duration                                 : 2 h 2 min
  191. Bit rate                                 : 23.9 kb/s
  192. Count of elements                        : 2264
  193. Stream size                              : 20.9 MiB (0%)
  194. Title                                    : French-PGS
  195. Language                                 : French
  196. Default                                  : No
  197. Forced                                   : No

  198. Text #9
  199. ID                                       : 13
  200. Format                                   : PGS
  201. Muxing mode                              : zlib
  202. Codec ID                                 : S_HDMV/PGS
  203. Codec ID/Info                            : Picture based subtitle format used on BDs/HD-DVDs
  204. Duration                                 : 2 h 1 min
  205. Bit rate                                 : 28.5 kb/s
  206. Count of elements                        : 2298
  207. Stream size                              : 24.8 MiB (0%)
  208. Title                                    : German-PGS
  209. Language                                 : German
  210. Default                                  : No
  211. Forced                                   : No

  212. Text #10
  213. ID                                       : 14
  214. Format                                   : PGS
  215. Muxing mode                              : zlib
  216. Codec ID                                 : S_HDMV/PGS
  217. Codec ID/Info                            : Picture based subtitle format used on BDs/HD-DVDs
  218. Duration                                 : 2 h 2 min
  219. Bit rate                                 : 26.5 kb/s
  220. Count of elements                        : 2148
  221. Stream size                              : 23.2 MiB (0%)
  222. Title                                    : Hungarian-PGS
  223. Language                                 : Hungarian
  224. Default                                  : No
  225. Forced                                   : No

  226. Text #11
  227. ID                                       : 15
  228. Format                                   : PGS
  229. Muxing mode                              : zlib
  230. Codec ID                                 : S_HDMV/PGS
  231. Codec ID/Info                            : Picture based subtitle format used on BDs/HD-DVDs
  232. Duration                                 : 2 h 2 min
  233. Bit rate                                 : 26.6 kb/s
  234. Count of elements                        : 2146
  235. Stream size                              : 23.3 MiB (0%)
  236. Title                                    : Italian-PGS
  237. Language                                 : Italian
  238. Default                                  : No
  239. Forced                                   : No

  240. Text #12
  241. ID                                       : 16
  242. Format                                   : PGS
  243. Muxing mode                              : zlib
  244. Codec ID                                 : S_HDMV/PGS
  245. Codec ID/Info                            : Picture based subtitle format used on BDs/HD-DVDs
  246. Duration                                 : 2 h 2 min
  247. Bit rate                                 : 16.8 kb/s
  248. Count of elements                        : 2105
  249. Stream size                              : 14.7 MiB (0%)
  250. Title                                    : Japanese-PGS
  251. Language                                 : Japanese
  252. Default                                  : No
  253. Forced                                   : No

  254. Text #13
  255. ID                                       : 17
  256. Format                                   : PGS
  257. Muxing mode                              : zlib
  258. Codec ID                                 : S_HDMV/PGS
  259. Codec ID/Info                            : Picture based subtitle format used on BDs/HD-DVDs
  260. Duration                                 : 2 h 1 min
  261. Bit rate                                 : 16.5 kb/s
  262. Count of elements                        : 2152
  263. Stream size                              : 14.4 MiB (0%)
  264. Title                                    : Korean-PGS
  265. Language                                 : Korean
  266. Default                                  : No
  267. Forced                                   : No

  268. Text #14
  269. ID                                       : 18
  270. Format                                   : PGS
  271. Muxing mode                              : zlib
  272. Codec ID                                 : S_HDMV/PGS
  273. Codec ID/Info                            : Picture based subtitle format used on BDs/HD-DVDs
  274. Duration                                 : 2 h 2 min
  275. Bit rate                                 : 25.6 kb/s
  276. Count of elements                        : 2154
  277. Stream size                              : 22.3 MiB (0%)
  278. Title                                    : Norwegian-PGS
  279. Language                                 : Norwegian
  280. Default                                  : No
  281. Forced                                   : No

  282. Text #15
  283. ID                                       : 19
  284. Format                                   : PGS
  285. Muxing mode                              : zlib
  286. Codec ID                                 : S_HDMV/PGS
  287. Codec ID/Info                            : Picture based subtitle format used on BDs/HD-DVDs
  288. Duration                                 : 2 h 2 min
  289. Bit rate                                 : 23.9 kb/s
  290. Count of elements                        : 2084
  291. Stream size                              : 20.9 MiB (0%)
  292. Title                                    : Polish-PGS
  293. Language                                 : Polish
  294. Default                                  : No
  295. Forced                                   : No

  296. Text #16
  297. ID                                       : 20
  298. Format                                   : PGS
  299. Muxing mode                              : zlib
  300. Codec ID                                 : S_HDMV/PGS
  301. Codec ID/Info                            : Picture based subtitle format used on BDs/HD-DVDs
  302. Duration                                 : 2 h 1 min
  303. Bit rate                                 : 25.7 kb/s
  304. Count of elements                        : 2186
  305. Stream size                              : 22.4 MiB (0%)
  306. Title                                    : Spanish-PGS
  307. Language                                 : Spanish
  308. Default                                  : No
  309. Forced                                   : No

  310. Text #17
  311. ID                                       : 21
  312. Format                                   : PGS
  313. Muxing mode                              : zlib
  314. Codec ID                                 : S_HDMV/PGS
  315. Codec ID/Info                            : Picture based subtitle format used on BDs/HD-DVDs
  316. Duration                                 : 2 h 2 min
  317. Bit rate                                 : 25.2 kb/s
  318. Count of elements                        : 2106
  319. Stream size                              : 22.0 MiB (0%)
  320. Title                                    : Spanish-PGS
  321. Language                                 : Spanish
  322. Default                                  : No
  323. Forced                                   : No

  324. Text #18
  325. ID                                       : 22
  326. Format                                   : PGS
  327. Muxing mode                              : zlib
  328. Codec ID                                 : S_HDMV/PGS
  329. Codec ID/Info                            : Picture based subtitle format used on BDs/HD-DVDs
  330. Duration                                 : 2 h 1 min
  331. Bit rate                                 : 25.3 kb/s
  332. Count of elements                        : 2146
  333. Stream size                              : 22.0 MiB (0%)
  334. Title                                    : Swedish-PGS
  335. Language                                 : Swedish
  336. Default                                  : No
  337. Forced                                   : No

  338. Menu
  339. 00:00:00.000                             : en:Chapter 01
  340. 00:04:22.679                             : en:Chapter 02
  341. 00:08:48.695                             : en:Chapter 03
  342. 00:16:25.776                             : en:Chapter 04
  343. 00:22:33.811                             : en:Chapter 05
  344. 00:30:08.515                             : en:Chapter 06
  345. 00:35:08.273                             : en:Chapter 07
  346. 00:40:33.348                             : en:Chapter 08
  347. 00:44:45.391                             : en:Chapter 09
  348. 00:48:56.809                             : en:Chapter 10
  349. 00:53:51.812                             : en:Chapter 11
  350. 00:56:43.775                             : en:Chapter 12
  351. 01:01:31.897                             : en:Chapter 13
  352. 01:07:23.873                             : en:Chapter 14
  353. 01:12:12.411                             : en:Chapter 15
  354. 01:16:59.114                             : en:Chapter 16
  355. 01:21:35.182                             : en:Chapter 17
  356. 01:24:42.661                             : en:Chapter 18
  357. 01:31:16.554                             : en:Chapter 19
  358. 01:36:27.031                             : en:Chapter 20
  359. 01:40:59.595                             : en:Chapter 21
  360. 01:46:26.589                             : en:Chapter 22
  361. 01:50:00.052                             : en:Chapter 23
  362. 01:53:17.791                             : en:Chapter 24
复制代码

星际摸索/星际使命 Ad.Astra.2019.2160p.BluRay.x265.10bit.SDR.DTS-HD.MA.TrueHD.7.1.Atmos-SWTYBLZ 45.97GB-2.png 星际摸索/星际使命 Ad.Astra.2019.2160p.BluRay.x265.10bit.SDR.DTS-HD.MA.TrueHD.7.1.Atmos-SWTYBLZ 45.97GB-3.png 星际摸索/星际使命 Ad.Astra.2019.2160p.BluRay.x265.10bit.SDR.DTS-HD.MA.TrueHD.7.1.Atmos-SWTYBLZ 45.97GB-1.png 星际摸索/星际使命 Ad.Astra.2019.2160p.BluRay.x265.10bit.SDR.DTS-HD.MA.TrueHD.7.1.Atmos-SWTYBLZ 45.97GB-5.png 星际摸索/星际使命 Ad.Astra.2019.2160p.BluRay.x265.10bit.SDR.DTS-HD.MA.TrueHD.7.1.Atmos-SWTYBLZ 45.97GB-6.png 星际摸索/星际使命 Ad.Astra.2019.2160p.BluRay.x265.10bit.SDR.DTS-HD.MA.TrueHD.7.1.Atmos-SWTYBLZ 45.97GB-7.png 星际摸索/星际使命 Ad.Astra.2019.2160p.BluRay.x265.10bit.SDR.DTS-HD.MA.TrueHD.7.1.Atmos-SWTYBLZ 45.97GB-8.png







本帖隐藏的下载地址需要VIP会员才可阅读,您需要升级才可阅读,点击这里升级VIP
VIP会员免费任意下载本站所有资源!---点击开通
回复

使用道具 举报

级别:普通观众 Lv.2

注册时间
2019-12-9
最后登录
2020-1-11
听众
1
收听
0
主题
0
蓝光币
21 枚
贡献
0 点
发表于 2019-12-9 22:39:44 | 显示全部楼层
楼主发贴辛苦了,谢谢楼主分享!我觉得中国高清电影网是注册对了!
VIP会员免费任意下载本站所有资源!---点击开通
回复

使用道具 举报

 成长值: 5875

级别:尊贵的会员

注册时间
2018-6-4
最后登录
2020-1-6
听众
13
收听
0
主题
0
蓝光币
125 枚
贡献
0 点
发表于 2019-12-10 14:41:14 | 显示全部楼层

楼主太厉害了!楼主,电影应该很好看我觉得中国高清电影网真是个好地方!
VIP会员免费任意下载本站所有资源!---点击开通
回复

使用道具 举报

级别:专业龙套 Lv.4

注册时间
2019-2-17
最后登录
2020-1-15
听众
16
收听
0
主题
0
蓝光币
264 枚
贡献
0 点
发表于 2019-12-10 18:30:26 | 显示全部楼层

我看不错噢 谢谢楼主!中国高清电影网越来越好!
VIP会员免费任意下载本站所有资源!---点击开通
回复

使用道具 举报

级别:普通观众 Lv.2

注册时间
2019-11-24
最后登录
2019-12-11
听众
1
收听
0
主题
0
蓝光币
1 枚
贡献
0 点
发表于 2019-12-10 19:45:34 | 显示全部楼层
楼主发贴辛苦了,谢谢楼主分享!我觉得中国高清电影网是注册对了!
VIP会员免费任意下载本站所有资源!---点击开通
回复

使用道具 举报

级别:初级观众 Lv.1

注册时间
2019-11-26
最后登录
2019-12-21
听众
1
收听
0
主题
0
蓝光币
1 枚
贡献
0 点
发表于 2019-12-11 16:41:20 | 显示全部楼层
上的人发射点发射点犯得上
VIP会员免费任意下载本站所有资源!---点击开通
回复

使用道具 举报

级别:初级观众 Lv.1

注册时间
2019-11-26
最后登录
2019-12-21
听众
1
收听
0
主题
0
蓝光币
1 枚
贡献
0 点
发表于 2019-12-11 16:41:53 | 显示全部楼层
楼主发贴辛苦了,谢谢楼主分享!我觉得中国高清电影网是注册对了!
VIP会员免费任意下载本站所有资源!---点击开通
回复

使用道具 举报

级别:普通观众 Lv.2

注册时间
2019-1-17
最后登录
2020-1-11
听众
9
收听
0
主题
0
蓝光币
1 枚
贡献
0 点
发表于 2019-12-11 18:41:07 | 显示全部楼层

楼主太厉害了!楼主,电影应该很好看我觉得中国高清电影网真是个好地方!
VIP会员免费任意下载本站所有资源!---点击开通
回复

使用道具 举报

级别:初级观众 Lv.1

注册时间
2019-12-12
最后登录
2019-12-12
听众
1
收听
0
主题
0
蓝光币
0 枚
贡献
0 点
发表于 2019-12-12 20:15:38 | 显示全部楼层
楼主发贴辛苦了,电影应该很好看
VIP会员免费任意下载本站所有资源!---点击开通
回复

使用道具 举报

级别:初级观众 Lv.1

注册时间
2019-11-25
最后登录
2019-12-13
听众
1
收听
0
主题
0
蓝光币
0 枚
贡献
0 点
QQ
发表于 2019-12-13 15:23:46 | 显示全部楼层

这个帖子不回对不起自己!我想我是一天也不能离开中国高清电影网
VIP会员免费任意下载本站所有资源!---点击开通
回复

使用道具 举报

懒得打字嘛,点击右侧快捷回复 【右侧内容,后台自定义】
您需要登录后才可以回帖 登录 | 立即注册

本版积分规则

Archiver|手机版|小黑屋| 中国高清网 |网站地图

GMT+8, 2020-1-19 09:41 , Processed in 0.325789 second(s), 38 queries .

Powered by HDchina X3.4

Copyright 2017-2019©HDchina.All right reserved

返回顶部 联系我们