查看: 141|回复: 5

[动画片] 雪人奇缘 Abominable.2019.1080p.BluRay.x264.TrueHD.7.1.Atmos-FGT 7.40GB

[复制链接]

 成长值: 3810

级别:资源管理组

注册时间
2017-10-20
最后登录
2020-1-19
听众
1
收听
0
主题
90464
蓝光币
82872 枚
贡献
14826 点
发表于 2019-12-8 20:35:53 | 显示全部楼层 |阅读模式
雪人奇缘 Abominable.2019.1080p.BluRay.x264.TrueHD.7.1.Atmos-FGT 7.40GB-1.png

译  名 雪人奇缘 / Everest / 坏坏萌雪怪(台) / 珠穆朗玛 / 长毛雪宝(港)
片  名 Abominable
年  代 2019
产  地 美国 / 中国大陆
类  别 笑剧 / 动画 / 冒险
语  言 英语
上映日期 2019-09-07(多伦多电影节) / 2019-09-27(美国) / 2019-10-01(中国大陆)
IMDb评分  7.1/10 from 6969 users
IMDb链接  https://www.imdb.com/title/tt6324278
豆瓣评分 7.6/10 from 12137 users
豆瓣链接 https://movie.douban.com/subject/26929010/
片  长 97分钟
导  演 吉尔·卡尔顿 Jill Culton / 托德·维尔德曼 Todd Wilderman
编  剧 吉尔·卡尔顿 Jill Culton
主  演 汪可盈 Chloe Bennet
       阿尔伯特·蔡 Albert Tsai
       艾迪·伊扎德 Eddie Izzard
       莎拉·保罗森 Sarah Paulson
       丹增·诺盖·特雷纳 Tenzing Norgay Trainor
       周采芹 Tsai Chin
       张子枫 Zifeng Zhang
       陈飞宇 Feiyu Chen
       何向东 Xiangdong He
       刘风 Feng Liu
       万茜 Qian Wan
       蔡明 Ming Cai


标  签 动画 | 东方梦工场 | 2019 | 温情 | 冒险 | 美国 | 笑剧 | 中国大陆

简  介  

  珠穆朗玛峰的雪人是传闻吗?不是!不但不是传闻,它还具有使人沉迷的魔力!少女小艺在天台上目击了雪人大毛行将被抓的惨况,决订婚身护送大毛回家,她的小伙伴阿俊和鹏鹏也加入了护送队伍。一路上冒险小分队路经了千岛湖、黄山、乐山大佛等著名的中国景点,雪人大毛为了躲避抓捕者,也逐一展现了自己奇异的魔力。庞大化的蒲公英,一秒变大的蓝莓,油菜花海浪,还有什么是雪人大毛的魔力做不到的?而抓捕者也早已在他们的目标地珠峰期待着冒险小分队步入早已设好的圈套…
  1. Video
  2. ID                                       : 1
  3. Format                                   : AVC
  4. Format/Info                              : Advanced Video Codec
  5. Format profile                           : High@L4
  6. Format settings                          : CABAC / 4 Ref Frames
  7. Format settings, CABAC                   : Yes
  8. Format settings, Reference frames        : 4 frames
  9. Codec ID                                 : V_MPEG4/ISO/AVC
  10. Duration                                 : 1 h 37 min
  11. Bit rate                                 : 5 796 kb/s
  12. Width                                    : 1 920 pixels
  13. Height                                   : 1 040 pixels
  14. Display aspect ratio                     : 1.85:1
  15. Frame rate mode                          : Constant
  16. Frame rate                               : 23.976 (24000/1001) FPS
  17. Color space                              : YUV
  18. Chroma subsampling                       : 4:2:0
  19. Bit depth                                : 8 bits
  20. Scan type                                : Progressive
  21. Bits/(Pixel*Frame)                       : 0.121
  22. Stream size                              : 3.94 GiB (53%)
  23. Title                                    : Abominable.2019.1080p.BluRay.x264.TrueHD.7.1.Atmos-FGT
  24. Writing library                          : x264 core 158 r2988 7817004
  25. Encoding settings                        : cabac=1 / ref=4 / deblock=1:1:1 / analyse=0x3:0x113 / me=umh / subme=8 / psy=1 / psy_rd=0.40:0.00 / mixed_ref=1 / me_range=16 / chroma_me=1 / trellis=1 / 8x8dct=1 / cqm=0 / deadzone=21,11 / fast_pskip=1 / chroma_qp_offset=-2 / threads=32 / lookahead_threads=5 / sliced_threads=0 / nr=0 / decimate=1 / interlaced=0 / bluray_compat=0 / constrained_intra=0 / bframes=5 / b_pyramid=2 / b_adapt=1 / b_bias=0 / direct=3 / weightb=1 / open_gop=0 / weightp=2 / keyint=250 / keyint_min=23 / scenecut=40 / intra_refresh=0 / rc_lookahead=50 / rc=2pass / mbtree=1 / bitrate=5796 / ratetol=1.0 / qcomp=0.60 / qpmin=0 / qpmax=69 / qpstep=4 / cplxblur=20.0 / qblur=0.5 / ip_ratio=1.40 / aq=1:0.60
  26. Language                                 : English
  27. Default                                  : Yes
  28. Forced                                   : No

  29. Audio #1
  30. ID                                       : 2
  31. Format                                   : MLP FBA 16-ch
  32. Format/Info                              : Meridian Lossless Packing FBA with 16-channel presentation
  33. Commercial name                          : Dolby TrueHD with Dolby Atmos
  34. Codec ID                                 : A_TRUEHD
  35. Duration                                 : 1 h 37 min
  36. Bit rate mode                            : Variable
  37. Bit rate                                 : 4 374 kb/s
  38. Maximum bit rate                         : 7 389 kb/s
  39. Channel(s)                               : 8 channels
  40. Channel layout                           : L R C LFE Ls Rs Lb Rb
  41. Sampling rate                            : 48.0 kHz
  42. Frame rate                               : 1 200.000 FPS (40 SPF)
  43. Compression mode                         : Lossless
  44. Stream size                              : 2.97 GiB (40%)
  45. Title                                    : Abominable.2019.1080p.BluRay.x264.TrueHD.7.1.Atmos-FGT
  46. Language                                 : English
  47. Default                                  : Yes
  48. Forced                                   : No
  49. Number of dynamic objects                : 11
  50. Bed channel count                        : 1 channel
  51. Bed channel configuration                : LFE

  52. Audio #2
  53. ID                                       : 3
  54. Format                                   : AC-3
  55. Format/Info                              : Audio Coding 3
  56. Commercial name                          : Dolby Digital
  57. Codec ID                                 : A_AC3
  58. Duration                                 : 1 h 37 min
  59. Bit rate mode                            : Constant
  60. Bit rate                                 : 640 kb/s
  61. Channel(s)                               : 6 channels
  62. Channel layout                           : L R C LFE Ls Rs
  63. Sampling rate                            : 48.0 kHz
  64. Frame rate                               : 31.250 FPS (1536 SPF)
  65. Bit depth                                : 16 bits
  66. Compression mode                         : Lossy
  67. Stream size                              : 445 MiB (6%)
  68. Title                                    : Abominable.2019.1080p.BluRay.x264.TrueHD.7.1.Atmos-FGT
  69. Language                                 : English
  70. Service kind                             : Complete Main
  71. Default                                  : No
  72. Forced                                   : No

  73. Text #1
  74. ID                                       : 4
  75. Format                                   : UTF-8
  76. Codec ID                                 : S_TEXT/UTF8
  77. Codec ID/Info                            : UTF-8 Plain Text
  78. Duration                                 : 1 h 25 min
  79. Bit rate                                 : 45 b/s
  80. Count of elements                        : 1091
  81. Stream size                              : 28.6 KiB (0%)
  82. Title                                    : English-SRT
  83. Language                                 : English
  84. Default                                  : Yes
  85. Forced                                   : No

  86. Text #2
  87. ID                                       : 5
  88. Format                                   : PGS
  89. Muxing mode                              : zlib
  90. Codec ID                                 : S_HDMV/PGS
  91. Codec ID/Info                            : Picture based subtitle format used on BDs/HD-DVDs
  92. Duration                                 : 1 h 35 min
  93. Bit rate                                 : 39.0 kb/s
  94. Count of elements                        : 3094
  95. Stream size                              : 26.7 MiB (0%)
  96. Title                                    : English-PGS
  97. Language                                 : English
  98. Default                                  : No
  99. Forced                                   : No
复制代码

雪人奇缘 Abominable.2019.1080p.BluRay.x264.TrueHD.7.1.Atmos-FGT 7.40GB-2.png 雪人奇缘 Abominable.2019.1080p.BluRay.x264.TrueHD.7.1.Atmos-FGT 7.40GB-1.png 雪人奇缘 Abominable.2019.1080p.BluRay.x264.TrueHD.7.1.Atmos-FGT 7.40GB-4.png







VIP会员免费任意下载本站所有资源!---点击开通
回复

使用道具 举报

级别:群众演员 Lv.3

注册时间
2019-12-3
最后登录
2020-1-19
听众
1
收听
0
主题
0
蓝光币
139 枚
贡献
0 点
发表于 2019-12-8 22:48:06 | 显示全部楼层

楼主,大恩不言谢了!中国高清电影网是最棒的!
VIP会员免费任意下载本站所有资源!---点击开通
回复

使用道具 举报

级别:初级观众 Lv.1

注册时间
2019-12-8
最后登录
2019-12-30
听众
1
收听
0
主题
0
蓝光币
2 枚
贡献
0 点
发表于 2019-12-10 13:57:24 | 显示全部楼层
謝謝版主的分享
VIP会员免费任意下载本站所有资源!---点击开通
回复

使用道具 举报

级别:初级观众 Lv.1

注册时间
2019-12-11
最后登录
2019-12-11
听众
1
收听
0
主题
0
蓝光币
1 枚
贡献
0 点
发表于 2019-12-11 12:12:54 | 显示全部楼层

这个帖子不回对不起自己!我想我是一天也不能离开中国高清电影网
VIP会员免费任意下载本站所有资源!---点击开通
回复

使用道具 举报

级别:初级观众 Lv.1

注册时间
2019-12-12
最后登录
2019-12-12
听众
1
收听
0
主题
0
蓝光币
0 枚
贡献
0 点
发表于 2019-12-12 09:45:52 | 显示全部楼层

我看不错噢 谢谢楼主!中国高清电影网越来越好!
VIP会员免费任意下载本站所有资源!---点击开通
回复

使用道具 举报

级别:初级观众 Lv.1

注册时间
2019-12-12
最后登录
2019-12-12
听众
1
收听
0
主题
0
蓝光币
0 枚
贡献
0 点
发表于 2019-12-12 10:29:41 | 显示全部楼层

这个帖子不回对不起自己!我想我是一天也不能离开中国高清电影网
VIP会员免费任意下载本站所有资源!---点击开通
回复

使用道具 举报

懒得打字嘛,点击右侧快捷回复 【右侧内容,后台自定义】
您需要登录后才可以回帖 登录 | 立即注册

本版积分规则

Archiver|手机版|小黑屋| 中国高清网 |网站地图

GMT+8, 2020-1-19 10:14 , Processed in 0.274424 second(s), 37 queries .

Powered by HDchina X3.4

Copyright 2017-2019©HDchina.All right reserved

返回顶部 联系我们