查看: 172|回复: 2

[剧情片] 大搜查之女 Lady.Cop.and.Papa.Crook.2008.DC.720p.BluRay.x264-REGRET 4.39GB

[复制链接]

 成长值: 5990

级别:资源管理组

注册时间
2017-10-20
最后登录
2020-7-5
听众
1
收听
0
主题
97450
蓝光币
166976 枚
贡献
21715 点
发表于 2019-12-2 23:15:45 | 显示全部楼层 |阅读模式
大搜寻之女 Lady.Cop.and.Papa.Crook.2008.DC.720p.BluRay.x264-REGRET 4.39GB-1.png + }/ w: x) v: b- f4 m6 B
" p% `0 ^# h  D# T1 i
译  名 Lady Cop & Papa Crook / 大搜寻
" w: h% d# A7 \- l片  名 大搜寻之女
1 d( ?# h& f8 ], s2 e年  代 20080 I5 g. f) d3 i3 w, e
产  地 中国香港 / 中国大陆: ~, D7 a8 q' A' d& J
类  别 笑剧 / 惊悚 / 犯罪
5 X! [) K4 N5 m8 m* L语  言 粤语 / 普通话
- o; W  e3 _' j8 w8 P0 w9 ~' r上映日期 2008-12-24* v  `; r. N' l) Y
IMDb评分  5.2/10 from 269 users! x+ _) D8 C6 r: X
IMDb链接  https://www.imdb.com/title/tt1258130
! x# t. r% {6 ?. L豆瓣评分 5.9/10 from 18728 users7 {- l6 r$ t2 |, K5 C( O) `
豆瓣链接 https://movie.douban.com/subject/3136488/) e) V# W0 A3 R" e8 K
片  长 92分钟
/ r7 @, r7 u# _( T; Z导  演 麦兆辉 / 庄文强! C+ t, q" z9 Y  \: v1 b' G
编  剧 麦兆辉 / 庄文强5 e# `- @. N$ i" B+ @- T# ~2 Z
主  演 郑秀文- Q! L8 t( _* X1 }( K( Z2 v! k# w! x
       陈奕迅( P" Y( t% O! j/ ]0 N; X2 h  U
       张国立% p8 x0 S" [) z0 U2 V
       董勇
* X2 _5 R- F- Q  V. e9 N- w       杜汶泽
0 a- K! z5 r* Y0 s, T! l       叶璇& S8 c) `9 s  W+ m, X( ^0 z5 k% l% U# w
       徐子珊8 H# C  }2 X6 Q  l, P  p& J
       刘浩龙7 A( s3 r3 r/ N% @7 Y$ ]
       任贤齐
& _2 I0 J* D$ N4 D$ w3 _0 `$ l# B1 [       陈子聪
9 O6 D2 [7 d7 |% h( }       黄德斌0 j6 r# H& J' O# h
       谭耀文
0 V! \) l" _) L3 W1 H8 b       谷祖琳. K# E# ~- K3 x, a1 @
5 S& x9 h' [8 K% O* x7 v% R1 O
" \* j# Y8 W8 P0 F' O% V
标  签 郑秀文 | 陈奕迅 | 香港电影 | 香港 | 麦兆辉 | 警匪 | 2008 | 电影
. e* J0 Z) Z( \6 _2 ]1 ~3 i7 j6 z$ B. ]
简  介  
2 Q; U4 j) E( T" ~7 z; C. p+ A5 m. Z& ^1 |9 L& f" @
  33岁还未成婚的香港女警司徒慕莲(郑秀文饰)一向为自己的亲事忧愁。男友十年前的许诺,现在成了她与同事间的笑谈。一日,走私团体的头目霍青松(陈奕迅饰)的儿子被绑架,司徒慕莲受命处置这宗案件。但霍青松一家为避免因走私之事被警方控诉,处处表示出分歧作的态度,而此时司徒慕莲发现自己有了身孕。1 Y/ ]  n& ~& }( u! X- V* _& d" j! ?
  黑白两道在一间大屋下貌和神离,霍家高低各自心胸暗计,同时,大陆警方也传来了结合破案的消息。作为“剩女”的司徒慕莲、作为差人的司徒慕莲,她到底能否处理眼前面临的一切?) I' u, @, D0 S8 A# M) u+ @  e! s7 @
  1. Video6 l3 E5 `3 N8 y8 j; `# p
  2. ID                                       : 1/ R) |0 X* D; w/ c& n1 d& @& e! v. \
  3. Format                                   : AVC
    ( u4 ~3 I& s2 H3 i* \- \
  4. Format/Info                              : Advanced Video Codec7 E' `/ N: g' E& p' a9 u
  5. Format profile                           : High@L4
    + s& V: b' @# K% S$ e* m
  6. Format settings                          : CABAC / 5 Ref Frames
      [  O) z% n# A& H  O7 }2 |
  7. Format settings, CABAC                   : Yes" a; B/ }+ T' M" p
  8. Format settings, Reference frames        : 5 frames
    2 L' S5 O, |& e) x% c( L- ?
  9. Codec ID                                 : V_MPEG4/ISO/AVC0 Y) u/ E4 t. s. ?2 T7 f- B- x
  10. Duration                                 : 1 h 38 min
    7 p8 @( N( W' s! b* T+ r% N& d2 C) o
  11. Bit rate                                 : 5 730 kb/s; N- B9 m0 A" S: X, \7 P
  12. Width                                    : 1 280 pixels
    ) U* r, N2 o4 z3 q
  13. Height                                   : 720 pixels
    3 S; }- t8 x& c$ M# X) V
  14. Display aspect ratio                     : 16:9% r% t8 _' ]$ v. q9 w! a. y& x
  15. Frame rate mode                          : Constant* T- ]- p! t7 @6 q& W
  16. Frame rate                               : 24.000 FPS
    , _# [) E4 o  M0 z5 t6 W
  17. Color space                              : YUV; j  \4 @' n  ^: r, A
  18. Chroma subsampling                       : 4:2:0
    / ]' z8 n7 O$ S7 V
  19. Bit depth                                : 8 bits
    1 j( X' S# M8 f/ j: s0 B$ V  G
  20. Scan type                                : Progressive
    * |- E& T" [7 }
  21. Bits/(Pixel*Frame)                       : 0.259
    2 g* {+ ]9 D+ m9 K1 D
  22. Stream size                              : 3.93 GiB (90%)% e& y& }* L9 y8 F! J: [  v" k
  23. Writing library                          : x264 core 158 r2988 7817004
    ! O6 W# A* `3 N3 I
  24. Encoding settings                        : cabac=1 / ref=5 / deblock=1:-3:-3 / analyse=0x3:0x133 / me=umh / subme=9 / psy=1 / psy_rd=1.00:0.00 / mixed_ref=1 / me_range=16 / chroma_me=1 / trellis=2 / 8x8dct=1 / cqm=0 / deadzone=21,11 / fast_pskip=0 / chroma_qp_offset=-2 / threads=22 / lookahead_threads=1 / sliced_threads=0 / nr=0 / decimate=1 / interlaced=0 / bluray_compat=0 / constrained_intra=0 / bframes=3 / b_pyramid=2 / b_adapt=1 / b_bias=0 / direct=3 / weightb=1 / open_gop=0 / weightp=2 / keyint=240 / keyint_min=24 / scenecut=40 / intra_refresh=0 / rc_lookahead=50 / rc=2pass / mbtree=1 / bitrate=5730 / ratetol=1.0 / qcomp=0.60 / qpmin=0 / qpmax=69 / qpstep=4 / cplxblur=20.0 / qblur=0.5 / ip_ratio=1.40 / aq=1:1.00
    0 E: [8 p' n4 K) \# p5 m2 }* e
  25. Language                                 : English( J. E6 R1 {3 W# \% B1 }
  26. Default                                  : Yes2 J4 I7 l' g* \' p, u
  27. Forced                                   : No
    . v( ^/ ^2 H- p$ g9 d* x
  28. ' \2 @! y8 O; [! ^2 v1 c1 W
  29. Audio8 [! B) Q4 p! M# Q" |+ g; q
  30. ID                                       : 2* S/ a4 S: P8 ]$ d3 `* b1 z
  31. Format                                   : AC-37 q' C; s$ q+ l
  32. Format/Info                              : Audio Coding 37 g* l. H% Y6 X4 B( H( z( B+ d
  33. Commercial name                          : Dolby Digital: {# N" F! X! I% b4 @  w, V6 |/ I
  34. Codec ID                                 : A_AC3
    / P9 t6 b; A+ h  M, C
  35. Duration                                 : 1 h 38 min/ f& V6 J& }& N
  36. Bit rate mode                            : Constant" T* Q- X9 ^, T9 @, [7 I3 ?2 [
  37. Bit rate                                 : 640 kb/s& C$ ^3 d8 ]/ O& e: V* h5 J
  38. Channel(s)                               : 6 channels) I" F# p' j* n% {: f# Y, T8 ^& g
  39. Channel layout                           : L R C LFE Ls Rs
    * A% x% T+ m1 U
  40. Sampling rate                            : 48.0 kHz
    " I7 v& t! W1 Z
  41. Frame rate                               : 31.250 FPS (1536 SPF)9 n/ {& l$ ]9 M2 k
  42. Bit depth                                : 16 bits' l4 Z; Z& G; O! W6 R" F! h  b
  43. Compression mode                         : Lossy
    ; s  R. X2 ?, K7 f
  44. Stream size                              : 450 MiB (10%)4 ^  o$ A6 G2 ~
  45. Language                                 : Chinese
    # M6 ~3 r, o9 Y' m4 W
  46. Service kind                             : Complete Main
    6 X" b* n2 f0 j! }7 g
  47. Default                                  : Yes
    ! y# H7 E0 ?$ L6 O
  48. Forced                                   : No& U: `0 K4 X; M3 j3 H
  49. + O/ a5 [2 T1 x* i- C- W6 G; {
  50. Text3 A, |) F# `: [3 V. G+ s3 m! U
  51. ID                                       : 3
      U' j' ]" c/ q' x& T* k2 f
  52. Format                                   : UTF-8: n  |  h$ N3 C  N# a
  53. Codec ID                                 : S_TEXT/UTF8( k% t: d, o8 p: G
  54. Codec ID/Info                            : UTF-8 Plain Text
    / G  C0 R0 u! W% {. f& x
  55. Duration                                 : 1 h 34 min" T) l4 v/ u" E6 P
  56. Bit rate                                 : 44 b/s" U3 f1 U  Q) W7 r
  57. Count of elements                        : 1162  l3 j) A( `+ |+ u5 y& U. G
  58. Stream size                              : 30.5 KiB (0%)+ k0 {) A4 E; b( b
  59. Title                                    : English Forced. n+ {0 [) m3 t
  60. Language                                 : English4 J8 R$ Q+ |0 g( S5 U9 H/ W( {0 Y$ r
  61. Default                                  : Yes
    5 p8 R: j! v9 r7 H# M2 F( W& I8 \4 Q
  62. Forced                                   : Yes9 m, n% p5 s0 C" Z
  63. 9 h! v- o) ]( Q9 R" X) ?3 v" s
  64. Menu
    , p6 E4 D+ `; l8 M
  65. 00:00:00.000                             : en:00:00:00.000$ N8 v/ w" A. J! k. m
  66. 00:06:34.000                             : en:00:06:34.000
    ( x8 N5 F( B) I$ D3 f8 x- l
  67. 00:11:44.000                             : en:00:11:44.0001 S8 d  }9 d+ M! S: h. H
  68. 00:15:12.000                             : en:00:15:12.000
    ( y+ ]2 [, F. p. q5 d
  69. 00:18:30.000                             : en:00:18:30.000
    ( d1 O" S7 X% V( h
  70. 00:23:42.000                             : en:00:23:42.000
    2 K& s" m* p# q# q) d! W, w2 R' a% h
  71. 00:26:16.000                             : en:00:26:16.000
    7 k6 Y% c) d) h- V% P
  72. 00:31:00.000                             : en:00:31:00.0008 ]9 e0 n4 F6 l' _/ h# x$ I
  73. 00:36:48.000                             : en:00:36:48.000: n( y9 @. Y* M! Q
  74. 00:40:53.000                             : en:00:40:53.000
    5 \: C0 g- R% s+ g  ~
  75. 00:45:48.000                             : en:00:45:48.000) f& e: G1 p- N9 Q. z; G% |
  76. 00:50:18.000                             : en:00:50:18.0005 c* t3 R* w* J# i) K  F; O
  77. 00:54:44.000                             : en:00:54:44.000# u0 Y& O, |0 _3 k4 s8 }( F
  78. 01:00:49.000                             : en:01:00:49.000
    + u( |9 R% y0 b' A2 h* h, M! }
  79. 01:07:13.000                             : en:01:07:13.000. e( |! o' e# r) e9 c6 l# E% b8 o
  80. 01:11:05.000                             : en:01:11:05.000
    0 ^. m' b$ V/ E( z2 v( {! J
  81. 01:17:30.000                             : en:01:17:30.000
    ( I  N- S. @, L! d* V) k: r
  82. 01:21:55.000                             : en:01:21:55.0005 j/ K, b8 z( X, t4 q; Y3 z6 e
  83. 01:27:50.708                             : en:01:27:50.708
    ' b) l! n0 p* D3 ], Q( z
  84. 01:35:26.000                             : en:01:35:26.000
复制代码

* Y. b* l& C9 b5 |7 B& B 大搜寻之女 Lady.Cop.and.Papa.Crook.2008.DC.720p.BluRay.x264-REGRET 4.39GB-2.png 大搜寻之女 Lady.Cop.and.Papa.Crook.2008.DC.720p.BluRay.x264-REGRET 4.39GB-3.png 大搜寻之女 Lady.Cop.and.Papa.Crook.2008.DC.720p.BluRay.x264-REGRET 4.39GB-4.png . Z# M' Z$ S+ a6 `/ H3 g* a
+ K8 n! g' h& R$ m/ B; o
4 V- {: E2 D8 P) \- t, Y

9 q5 H  @$ ^+ i4 \. R/ [) m# M6 B: N5 ~2 f3 ^- P

& G! s% B: f3 @8 `" S  r2 ^5 Y# k5 ~$ E, K

" U# p) M2 U7 H7 p2 R$ n
回复

使用道具 举报

级别:功成名就 Lv.9

注册时间
2019-4-24
最后登录
2020-6-29
听众
15
收听
0
主题
0
蓝光币
560 枚
贡献
0 点
发表于 2019-12-3 08:18:47 | 显示全部楼层
楼主发贴辛苦了,谢谢楼主分享!我觉得中国高清电影网是注册对了!
回复

使用道具 举报

级别:初级观众 Lv.1

注册时间
2019-12-1
最后登录
2019-12-30
听众
2
收听
0
主题
0
蓝光币
12 枚
贡献
0 点
发表于 2019-12-4 17:38:01 | 显示全部楼层
谢谢楼主分享
回复

使用道具 举报

懒得打字嘛,点击右侧快捷回复 【右侧内容,后台自定义】
您需要登录后才可以回帖 登录 | 立即注册

本版积分规则

Archiver|手机版|小黑屋| 中国高清网 ( ICP备17007870号-2 ) |网站地图 

GMT+8, 2020-7-5 09:01 , Processed in 0.227475 second(s), 40 queries .

Powered by HDchina X3.4

Copyright 2017-2019©HDchina.All right reserved

返回顶部 联系我们