查看: 129|回复: 1

[喜剧片] 大搜查之女 Lady.Cop.and.Papa.Crook.2008.THEATRiCAL.720p.BluRay.x264-REGRET 4.38GB

[复制链接]

 成长值: 5990

级别:资源管理组

注册时间
2017-10-20
最后登录
2020-7-5
听众
1
收听
0
主题
97450
蓝光币
166944 枚
贡献
21715 点
发表于 2019-12-2 22:56:55 | 显示全部楼层 |阅读模式
大搜寻之女 Lady.Cop.and.Papa.Crook.2008.THEATRiCAL.720p.BluRay.x264-REGRET 4.38GB-1.png 9 J, f& ?  ?* |3 U9 K8 Z2 u9 m6 [
* e9 A  k- P  o. h# S
译  名 Lady Cop & Papa Crook / 大搜寻
1 E) m/ d! q# K+ D片  名 大搜寻之女
$ P5 e' u1 A3 b3 b, d年  代 2008
6 B) y6 S; G1 H7 P! \产  地 中国香港 / 中国大陆# \  V2 X% I" z( f- C
类  别 笑剧 / 惊悚 / 犯罪
  T3 g2 c" R" F2 w& ^2 R( e语  言 粤语 / 普通话& G8 W  z( ^+ V, x3 [! L2 s
上映日期 2008-12-24
& W. |  K2 @4 B2 ~& UIMDb评分  5.2/10 from 269 users
/ Z( {9 y7 C% ?$ A$ Y$ W- VIMDb链接  https://www.imdb.com/title/tt1258130
' g, I+ Q$ E4 h. _- P2 @0 U2 P豆瓣评分 5.9/10 from 18728 users
( E" ~& c. q4 }豆瓣链接 https://movie.douban.com/subject/3136488/
; t$ a/ b0 [' E+ l片  长 92分钟' W8 Q2 Z( q+ H
导  演 麦兆辉 / 庄文强
1 s& a% k6 n$ G编  剧 麦兆辉 / 庄文强
# X2 i8 Z9 p% ?) P主  演 郑秀文
) j. @( M  _" y- E- [3 z1 i  j       陈奕迅% y, o2 h' G. ]1 C
       张国立
  Y, W% X6 V& ~       董勇4 v, k/ n) f7 `9 g9 V" B9 i
       杜汶泽* Q* Z) n) g1 J
       叶璇9 B- k: A' U+ b- G
       徐子珊
. F1 ^6 K/ B% V6 |2 a5 {4 w) D* B       刘浩龙7 Y5 i) [' R3 ]0 D. h' D: i3 p! ^) N
       任贤齐
9 O0 n  n/ D; ?1 m       陈子聪
* b1 s0 z, I  L  i! m       黄德斌
) F- F/ e* Y7 y       谭耀文5 L+ ]# z" N! m$ n/ C; e# m
       谷祖琳" }7 w2 C& F. V+ W% I
& M8 a9 ^2 S1 i/ w  \

8 f3 F/ n1 i; s/ V标  签 郑秀文 | 陈奕迅 | 香港电影 | 香港 | 麦兆辉 | 警匪 | 2008 | 电影
! V6 V( D# f" X' Q9 k; c" E8 p/ ?# o. E) {3 Z  K4 v3 U; h& }
简  介  & n/ |8 t* p$ e, W+ P: S. i. l9 H3 Q

7 h+ h" z8 o" N; P: `  33岁还未成婚的香港女警司徒慕莲(郑秀文饰)一向为自己的亲事忧愁。男友十年前的许诺,现在成了她与同事间的笑谈。一日,走私团体的头目霍青松(陈奕迅饰)的儿子被绑架,司徒慕莲受命处置这宗案件。但霍青松一家为避免因走私之事被警方控诉,处处表示出分歧作的态度,而此时司徒慕莲发现自己有了身孕。/ c' I& P) L& M7 v5 N
  黑白两道在一间大屋下貌和神离,霍家高低各自心胸暗计,同时,大陆警方也传来了结合破案的消息。作为“剩女”的司徒慕莲、作为差人的司徒慕莲,她到底能否处理眼前面临的一切?: `4 s  \! T) Q# r- q  z
  1. Video
    / v& G+ h: f/ Y! d
  2. ID                                       : 1. M+ q0 w# ]  ]% b! L$ s
  3. Format                                   : AVC
    ) a. B# F: {3 w; `) t
  4. Format/Info                              : Advanced Video Codec# M$ ^( x9 h) M% L( Y6 \) I
  5. Format profile                           : High@L4
    : f1 s& O; |! e0 X
  6. Format settings                          : CABAC / 5 Ref Frames
    5 N. ^' G' e8 c- p8 y' d- z* V# c
  7. Format settings, CABAC                   : Yes; V: ]/ A% p: _( G/ t/ a: a7 R
  8. Format settings, Reference frames        : 5 frames
    0 ~) f6 ]: s5 B: `
  9. Codec ID                                 : V_MPEG4/ISO/AVC
    ! h) M& L. q0 b' k' X
  10. Duration                                 : 1 h 31 min( \! S+ n* h+ X& L0 I1 a: z
  11. Bit rate                                 : 6 174 kb/s
    0 ~5 y6 J5 `' @) Q
  12. Width                                    : 1 280 pixels
    # u* u; {1 l+ A" b; ]: N5 s7 `4 a
  13. Height                                   : 720 pixels
    4 C3 o" \: ^; {: K& F
  14. Display aspect ratio                     : 16:9
    & W- A! _' C# ~& X6 ]. Z
  15. Frame rate mode                          : Constant8 N8 K; J9 Q7 L. T6 [
  16. Frame rate                               : 24.000 FPS
    + k( q3 w1 e5 ]3 ^
  17. Color space                              : YUV) T, H# u; i0 N" P  Q  o
  18. Chroma subsampling                       : 4:2:01 i; ~, N' O7 z: F1 U
  19. Bit depth                                : 8 bits
    1 f6 i3 w. q7 d0 u0 f  I6 V. ~! f
  20. Scan type                                : Progressive
    + W" `: ^* P" Y! ?9 ]' z
  21. Bits/(Pixel*Frame)                       : 0.279
    4 I4 n- B; Q1 n$ v3 j1 |
  22. Stream size                              : 3.96 GiB (91%)
    1 \# V4 Z( E# u, {7 t
  23. Writing library                          : x264 core 158 r2988 7817004! v9 W6 U8 [) o, X
  24. Encoding settings                        : cabac=1 / ref=5 / deblock=1:-3:-3 / analyse=0x3:0x133 / me=umh / subme=9 / psy=1 / psy_rd=1.00:0.00 / mixed_ref=1 / me_range=16 / chroma_me=1 / trellis=2 / 8x8dct=1 / cqm=0 / deadzone=21,11 / fast_pskip=0 / chroma_qp_offset=-2 / threads=22 / lookahead_threads=1 / sliced_threads=0 / nr=0 / decimate=1 / interlaced=0 / bluray_compat=0 / constrained_intra=0 / bframes=3 / b_pyramid=2 / b_adapt=1 / b_bias=0 / direct=3 / weightb=1 / open_gop=0 / weightp=2 / keyint=240 / keyint_min=24 / scenecut=40 / intra_refresh=0 / rc_lookahead=50 / rc=2pass / mbtree=1 / bitrate=6174 / ratetol=1.0 / qcomp=0.60 / qpmin=0 / qpmax=69 / qpstep=4 / cplxblur=20.0 / qblur=0.5 / ip_ratio=1.40 / aq=1:1.00; u3 C- N6 g7 Z  n0 j5 g
  25. Language                                 : English: r  [* \* ?0 ]. ?0 m% U1 P
  26. Default                                  : Yes$ d) p* Z/ ?$ z" Q. j! N/ y
  27. Forced                                   : No
    + S! c, g8 Q% K7 s& i! ?4 t

  28. , ]: @3 W9 `/ f- M" e
  29. Audio
    7 j0 y) |0 ^) j, M7 \, d* @% D
  30. ID                                       : 2, i) I3 W4 j" v
  31. Format                                   : AC-3+ D" A* M3 I2 u" q" [
  32. Format/Info                              : Audio Coding 3
    . Y) ?$ U* X% f* M. K
  33. Commercial name                          : Dolby Digital
    / \# v7 b9 b! R% ?: i3 E$ S# B
  34. Codec ID                                 : A_AC3
    ; a: D" [9 R* c/ w/ Q+ l( Q) q
  35. Duration                                 : 1 h 31 min6 E% D# c. j5 I$ d/ F9 f
  36. Bit rate mode                            : Constant
    , u6 h: T8 q3 c( d4 m/ t$ {: Q/ f6 @
  37. Bit rate                                 : 640 kb/s
    6 S0 P; N( V/ U* v! E
  38. Channel(s)                               : 6 channels
    " h" G- D( B1 ~# Q5 F
  39. Channel layout                           : L R C LFE Ls Rs
    4 U  h6 q" ^5 H; ^
  40. Sampling rate                            : 48.0 kHz
    $ _8 P) H, T3 l! i; L
  41. Frame rate                               : 31.250 FPS (1536 SPF)
    3 E+ d: v  b1 M9 \+ M' W+ T
  42. Bit depth                                : 16 bits/ D) ?; @2 B! M: ?$ K, X" W3 \
  43. Compression mode                         : Lossy% d5 G+ l2 W# V! ~5 b5 d
  44. Stream size                              : 420 MiB (9%)
    ! O* a; C, R+ \
  45. Language                                 : Chinese
    5 S; M4 {+ r8 T% b) e; @& ?
  46. Service kind                             : Complete Main2 t8 R( h( V# \2 h, o( W% \" e8 M
  47. Default                                  : Yes
    1 [6 p: b7 G) X" J# R2 @) ]. i
  48. Forced                                   : No
    ! a; x, Q  _' a3 W

  49. % F: J& _$ b& [' n
  50. Text
    . @8 d# K7 }# r% o5 Q3 `
  51. ID                                       : 35 t' B( G, n# o/ l
  52. Format                                   : UTF-8
    7 o9 {3 ^. o9 S! e/ U8 F
  53. Codec ID                                 : S_TEXT/UTF8
    ( F  a- n; B; r# _& T
  54. Codec ID/Info                            : UTF-8 Plain Text
    6 S, a2 d2 @6 M/ P! t
  55. Duration                                 : 1 h 27 min
    * N! E1 Y3 [' ?6 \: W
  56. Bit rate                                 : 43 b/s6 k2 m9 N& T! P+ o" i( d* O# |
  57. Count of elements                        : 1066
    $ G+ j9 K( Y" v& I
  58. Stream size                              : 28.0 KiB (0%)
    + \5 ?5 u" _- U9 O  O' U. J
  59. Title                                    : English Forced
    8 o% g2 E- K) x, Q: e. p& T3 Y9 [! }$ T
  60. Language                                 : English
    / O" @6 l/ b5 |  D# h
  61. Default                                  : Yes
    0 J, q+ r, d& D# a) j; H
  62. Forced                                   : Yes
    - x4 z- O- O0 H

  63. 8 d% ]( a8 g. \2 T. z# V- I
  64. Menu2 ^  w3 @* `/ u3 V% H  P
  65. 00:00:00.000                             : en:00:00:00.0009 y2 A' j' l6 `# o
  66. 00:06:34.000                             : en:00:06:34.000" Y5 }( R" S( d0 k& P4 y% P6 R, }
  67. 00:11:44.000                             : en:00:11:44.0004 P; y- C5 B4 L) i6 B$ k. c! l! c* |
  68. 00:15:12.000                             : en:00:15:12.0004 Q0 ^7 a; V& r" n* C
  69. 00:18:30.000                             : en:00:18:30.000! P; G" \. F( u9 ~  N  ], Y% Q* i' m6 O
  70. 00:23:42.000                             : en:00:23:42.000
    . K/ W% ?* F$ ]6 T4 l) @- o
  71. 00:26:16.000                             : en:00:26:16.000/ c( k8 |+ u9 K& L9 }; x. y/ U
  72. 00:31:00.000                             : en:00:31:00.000' F0 a  T( ?- F% C
  73. 00:36:48.000                             : en:00:36:48.000
    % Y. b0 k  [) G3 N, N' A
  74. 00:40:53.000                             : en:00:40:53.0002 t, |8 `  J" C' b- ?) l
  75. 00:45:48.000                             : en:00:45:48.000
    + l4 r; p3 v% `  G
  76. 00:50:18.000                             : en:00:50:18.000
    . A" j) K% d  @* X
  77. 00:54:44.000                             : en:00:54:44.0002 i+ u+ ?; N, C, [/ u
  78. 01:00:49.000                             : en:01:00:49.000
    * D( y- W  G6 _, [8 G1 W0 K7 N, ?
  79. 01:07:13.000                             : en:01:07:13.000
    : z% o4 |; U/ \  y
  80. 01:11:05.000                             : en:01:11:05.0000 U0 E% V' X0 K8 }3 h0 [
  81. 01:17:30.000                             : en:01:17:30.000/ f: T  R& M: |1 m9 s  _7 N
  82. 01:21:55.000                             : en:01:21:55.000
    . W( p2 M  h' P6 B
  83. 01:25:24.000                             : en:01:25:24.000
    1 q2 C$ u* r1 ?
  84. 01:28:59.000                             : en:01:28:59.000
复制代码

5 K8 i  q. m7 S3 b' T# c' d9 H4 { 大搜寻之女 Lady.Cop.and.Papa.Crook.2008.THEATRiCAL.720p.BluRay.x264-REGRET 4.38GB-2.png 大搜寻之女 Lady.Cop.and.Papa.Crook.2008.THEATRiCAL.720p.BluRay.x264-REGRET 4.38GB-3.png 大搜寻之女 Lady.Cop.and.Papa.Crook.2008.THEATRiCAL.720p.BluRay.x264-REGRET 4.38GB-4.png ) e. ~! \7 @" [$ Y4 G1 _( r

/ k3 i6 s1 F3 @! A) t* e: Y& n# y) Y1 Z5 }$ ~: u& r
+ k5 V- d4 _' x. \, S8 C

- j# |7 @$ W! o4 j/ F4 I1 Y' ~9 B' o* @' D
7 I- Q( n/ V* d$ C
/ a4 M/ d! p& a: r' z) U
回复

使用道具 举报

级别:功成名就 Lv.9

注册时间
2019-4-24
最后登录
2020-6-29
听众
15
收听
0
主题
0
蓝光币
560 枚
贡献
0 点
发表于 2019-12-3 08:19:39 | 显示全部楼层
楼主发贴辛苦了,谢谢楼主分享!我觉得中国高清电影网是注册对了!
回复

使用道具 举报

懒得打字嘛,点击右侧快捷回复 【右侧内容,后台自定义】
您需要登录后才可以回帖 登录 | 立即注册

本版积分规则

Archiver|手机版|小黑屋| 中国高清网 ( ICP备17007870号-2 ) |网站地图 

GMT+8, 2020-7-5 08:03 , Processed in 0.194007 second(s), 39 queries .

Powered by HDchina X3.4

Copyright 2017-2019©HDchina.All right reserved

返回顶部 联系我们