查看: 161|回复: 1

[恐怖片] 泥人哥连出世记 The.Golem.1920.720p.BluRay.x264-GHOULS 3.28GB

[复制链接]

 成长值: 5990

级别:资源管理组

注册时间
2017-10-20
最后登录
2020-7-5
听众
1
收听
0
主题
97450
蓝光币
166944 枚
贡献
21715 点
发表于 2019-12-2 20:45:31 | 显示全部楼层 |阅读模式
泥人哥连出世记 The.Golem.1920.720p.BluRay.x264-GHOULS 3.28GB-1.png
/ P9 q( h7 Y1 U& ?: D% F' p9 @' g% W, [7 o' ]
译  名 泥人哥连出世记 / The Golem / The Golem: How He Came Into the World
2 |  \' Y* t& M片  名 Der Golem, wie er in die Welt kam
+ e5 h# y0 ]0 ?+ D  {& H年  代 1920  G1 m, w, u1 v1 Y6 R
产  地 德国7 H: W( h, ~8 j
类  别 可骇 / 奇异. ?) M5 t; [2 u0 T
语  言 默片  p2 H; }/ [0 v) r; M1 ]- \
上映日期 1920-10-29
" J  Q- d, M8 m6 R& g/ Y2 m0 NIMDb评分  7.2/10 from 5963 users
- z" r: T, S- F8 C7 k! dIMDb链接  https://www.imdb.com/title/tt0011237
2 }  o0 ^/ J% G) S/ x豆瓣评分 7.8/10 from 356 users
; J/ |- s. d% ?% W) e  r! _豆瓣链接 https://movie.douban.com/subject/1441474/
8 ^  F$ c0 V/ i8 _' U6 s片  长 Germany: 85 分钟(20 fps)
. B; G; R. m8 ~* N- Y( S$ g: X导  演 卡尔·伯泽 Carl Boese / 保罗·威格纳 Paul Wegener5 w$ w1 _) ?, x
编  剧 亨利克·加仑 Henrik Galeen / 保罗·威格纳 Paul Wegener( X* g2 _6 W8 h- h. `* s# t
主  演 Paul Wegener% g* M$ ^3 P: L6 k3 E
       Albert Steinrück
" [7 t: j0 r: {3 \. I/ Y) @: J- F  M       Lyda Salmonova
6 b) v0 M, N; z' t# _1 _# W+ S7 |2 R
7 n1 V( B. r. {, j4 E: j
& i) c/ n: K* h. W! }标  签 德国 | 表示主义 | 默片 | 德国电影 | 1920s | 哥特 | 1920 | 可骇
# N0 x2 y) k* n9 a, c) D3 V! j& x9 J# K- Y% w9 k
简  介  
0 r  X+ E' a% Q0 Q! q6 l; g) C  d6 V9 i+ A  |, {
  德国表示主义代表作品7 Z* W( c0 O9 [
  A
" b$ R$ @% J7 S4 ?  公元4世纪的犹太教法典(Talmud)中提到过Rava造golem的事。Rava的全称叫Rabbi Abba ben Rav Hamma,他造了一个不会措辞的“人”。他把这个“人”送到Rav Zera眼前,由于它对问话没有反应,Zera就说:“你准是由我的某个同业造的。回归灰尘吧。” (Sanhedrin 65b)  在宗教意义上,只要天主造的人材是完整的人,才会措辞,而Rava造的不是实在的人。依照犹太传统,那时那些拉比(Rabbis)和大贤(Sages)都能造人大概动物Golems,这并没有什么出格之处。* C' `1 C* t' x; R8 G# B# i" N
  B
# X: a4 S& H, b8 M' N3 c; _4 K  Golem的传闻后来逐步改变,十七世纪由布拉格的Rabbi Loew(Rabbi意犹太教的学者)缔造了一个Golem来庇护住在犹太区的犹太人免遭反犹主义的暴力侵扰。为避免麻烦,故事中的学者总是在Golem完成它的使命今后,再自觉地把它重新变回为无生命的土壤。一天,Rabbi忘记将Golem变回土壤,当城市一切人已经作星期去了,Golem发怒损坏全城。这个故事架构一向到十九、二十世纪都还在文学著作里出现,最著名的是Gustav Meyrink的《Der Golem》,在一九一五年普遍被阅读,值得探讨的是,这样的小说恰好出现在产业反动的时代。这反应了人们对于科技所带来伦理的应战的惊慌。* |" k6 J6 O  J+ Y% X  w9 b4 r
  C
# I$ t" `  D& \. V  1920年由Carl Boese和Paul Wegener执导的典范默片Der Golem, wie er in die Welt kam (The Golem: How He Came Into the World) 就是改编自Gustav Meyrink的小说。这部影片集合表现了德国表示主义艺术的特点,对Fritz Lang等导演发生太严重影响。其中经心设想了手提灯光、煤油灯光、火把等一系列光源结果,用于表示人物的心理状态,营建影片的情况氛围。这类具有表示力地应用灯光结果的方式,终极成长为一切德国电影形式表示的一大特征,同时也为电影可骇片的外型的表示手段供给了经历。
4 [4 H: L" F. h. \  D+ s; l/ o  T- {; V1 B3 v
  Golem的传闻一样也是玛丽·雪莱的著名科幻小说《弗兰肯斯坦》的来历之一,不外分歧的是:传闻中的Golem拙笨、冒失,既不晓得自己有多大的气力,也不晓得自己有多笨大概有多蒙昧;而在玛丽·雪莱笔下,维克多·弗兰肯斯坦所缔造的怪物虽然鲁莽,但却长于进修,极富人性,晓得疾苦、怜悯、怜悯、倾慕、懊悔等等人类的感情,甚至近年轻的弗兰肯斯坦本人还成熟些。十八世纪的启蒙活动由提倡理性主义成长到前期,理性起头压制人的感情,理性主义酿成一种冰冷僵硬的工具。因而在德国兴起了否决启蒙活动的浪漫主义活动,十九世纪前期,浪漫主义文学囊括欧美,玛丽·雪莱的《弗兰肯斯坦》就是在这个布景下诞生的。不外在浅显文学中反理性反科学的偏向总是显得有些矫枉过正,科学和科学家的形象被简单化、平面化,这类描画“科学怪人”的方式在默片时代的德国表示主义电影中已经非常兴盛,后来一向在好莱坞很多低劣的科幻片(这类电影的一大特点就是不竭拍摄越来越低劣的续集)中继续。
) ~) z+ h* s3 j% n9 x  E今世科学哲学研讨最热门的一个偏向是科学常识社会学(SSK),研讨方式是深入到科学具体研讨进程中,细致考查经费筹集、论文颁发等每一个环节,研讨科学常识是若何建构起来的,夸大社会身分在建构进程中的感化。SSK的代表人物柯林斯战争奇在1993年出书过一本提高性的小册子,名字就叫Golem,翻译成《勾画姆:关于科学人们应晓得些什么》。柯林斯坦诚地说,他这部书是想用“勾画姆”诠释“科学”,“我们试图证实它不是一个邪恶的造物,只是有点疯狂(或译成‘傻’)(it is not an evilcreature but it is a little daft)。不要责备勾画姆科学的过失;是我们人类在出毛病。假如勾画姆极力做其自己的工作,它不应遭到责备。可是我们不能期望过量。勾画姆虽然强有力,它却是我们的文化(art)大概我们的身手(craft)的造物。”SSK经常被斥为带有反科学偏向,但可以看出,它与浪漫主义期间的反科学偏向完全分歧。它所描画的科学形象饱满,有血有肉,它所谓的“反科学”不过是要抹去那些被强加于科学的重重面纱,还科学一个实在的脸孔,绝非19世纪简单的拒斥、贬低科学。
( f5 o" g. K1 y1 X; A1 q/ ^/ c! v
  1. Video
    1 x9 C$ z/ F4 H2 ?- {( w9 e
  2. ID                                       : 1: L6 F+ d$ u. y* o: {- U) {7 U: p
  3. Format                                   : AVC
    4 l! a) o* B% ~5 o- P
  4. Format/Info                              : Advanced Video Codec
    6 Q: T9 A, G6 b0 ?6 _! K
  5. Format profile                           : High@L4$ Y( m5 @: g& W, J! c( W: l
  6. Format settings                          : CABAC / 12 Ref Frames
    ( o# I4 ]" @+ r; \9 j5 m8 w' J4 ]  X, [: P1 \
  7. Format settings, CABAC                   : Yes
    4 a9 C7 {+ ~1 P7 a4 l
  8. Format settings, Reference frames        : 12 frames- V) U+ G: h$ E: }; ^: C' n
  9. Codec ID                                 : V_MPEG4/ISO/AVC
      p. F' C# ?5 n8 Y7 T
  10. Duration                                 : 1 h 16 min
    ) K) A. \( c3 a' o& b
  11. Bit rate                                 : 4 979 kb/s
    * B4 _8 _5 o# X
  12. Width                                    : 960 pixels
    $ J6 D& c$ \. Y
  13. Height                                   : 720 pixels
    $ W& k& o- i* S
  14. Display aspect ratio                     : 4:3
    , K" G+ a. @  d2 M4 l1 K' r
  15. Frame rate mode                          : Constant
    ' L5 h; H5 [0 ~& U* X4 A
  16. Frame rate                               : 19.980 (20000/1001) FPS% e: ~: `8 u% w0 M
  17. Color space                              : YUV
    . |9 N" Q) A# }& G, K
  18. Chroma subsampling                       : 4:2:0" h3 N0 A7 A5 B" t0 X: R& T
  19. Bit depth                                : 8 bits7 a/ I7 o  \) W$ l, s4 g" ~: p& Z
  20. Scan type                                : Progressive
    , z$ ]) _% L8 K5 |6 Q
  21. Bits/(Pixel*Frame)                       : 0.361
    . O6 ]. X5 [* {2 p) l! Y/ u
  22. Stream size                              : 2.65 GiB (81%)
    . @+ F! w3 S& `3 Z0 A% P
  23. Writing library                          : x264 core 158 r2988 7817004, ~2 K  e% P/ N& {- A! u0 ]# j
  24. Encoding settings                        : cabac=1 / ref=12 / deblock=1:-3:-3 / analyse=0x3:0x133 / me=umh / subme=9 / psy=1 / psy_rd=1.00:0.00 / mixed_ref=1 / me_range=24 / chroma_me=1 / trellis=1 / 8x8dct=1 / cqm=0 / deadzone=21,11 / fast_pskip=0 / chroma_qp_offset=-2 / threads=22 / lookahead_threads=3 / sliced_threads=0 / nr=0 / decimate=1 / interlaced=0 / bluray_compat=0 / constrained_intra=0 / bframes=8 / b_pyramid=2 / b_adapt=2 / b_bias=0 / direct=3 / weightb=1 / open_gop=0 / weightp=2 / keyint=250 / keyint_min=19 / scenecut=40 / intra_refresh=0 / rc_lookahead=60 / rc=2pass / mbtree=1 / bitrate=4979 / ratetol=1.0 / qcomp=0.60 / qpmin=0 / qpmax=69 / qpstep=4 / cplxblur=20.0 / qblur=0.5 / vbv_maxrate=62500 / vbv_bufsize=78125 / nal_hrd=none / filler=0 / ip_ratio=1.40 / aq=1:1.008 c" E6 {5 }" A. T  t( z4 W
  25. Default                                  : Yes" B5 G) _0 _& z6 Z
  26. Forced                                   : No3 b2 o. \& M* H/ T

  27. 5 P; Z0 F( s9 J3 h( w
  28. Audio
    8 m0 e; O" r- o/ m0 ~! i5 I1 {
  29. ID                                       : 2% A* ^9 w$ w2 ?: v: Y
  30. Format                                   : FLAC& k+ J6 ?: b& k2 `* l
  31. Format/Info                              : Free Lossless Audio Codec& ?! @% P' _+ j& O! ^. i2 M3 |
  32. Codec ID                                 : A_FLAC2 ~8 E9 b  _9 N1 q* O/ r+ M9 {
  33. Duration                                 : 1 h 16 min
    ' ^+ w0 v6 E& H# q( u
  34. Bit rate mode                            : Variable
      J( s. ~  [0 P# X9 Z' s  K0 d1 f# V
  35. Bit rate                                 : 1 176 kb/s
    - j$ n. P; `& H" C% P3 D8 M
  36. Channel(s)                               : 2 channels
    9 e; _; c4 N9 b1 c& q! K- z7 F
  37. Channel layout                           : L R# w2 r9 u$ r7 T; S, S6 i& i
  38. Sampling rate                            : 48.0 kHz3 o( D- C( O! b1 ^4 Y" z5 P
  39. Frame rate                               : 10.417 FPS (4608 SPF)7 Y/ Q& M" Z9 `- y0 y) A
  40. Bit depth                                : 24 bits
    ; F7 d- j9 K. O$ I* w$ O/ \$ Y
  41. Compression mode                         : Lossless
      b+ f+ }4 k3 [- ]* g) S* w  `
  42. Stream size                              : 641 MiB (19%)2 o* k3 V# o' a' ~+ Z0 c% w
  43. Writing library                          : Lavf58.29.100- I$ F! A! z: r
  44. Language                                 : English
    ; b# b* f% @2 Q0 d
  45. Default                                  : Yes
    + P% h/ e* ~7 V" }  P  y
  46. Forced                                   : No$ R8 W2 A8 Z0 L! z1 X
  47. 5 d& R  V* D" O  m
  48. Text" O9 c2 d# t  }% j1 E$ J
  49. ID                                       : 3" ^  ]! {/ ~5 N. n( a8 \
  50. Format                                   : UTF-8
    + S# E1 A, ^, U8 j
  51. Codec ID                                 : S_TEXT/UTF8
    * d6 {" T  w* A
  52. Codec ID/Info                            : UTF-8 Plain Text
    & v% z% K3 \: |; _# l( V# ^
  53. Duration                                 : 1 h 15 min; Q- u3 t9 W6 J9 g  _
  54. Bit rate                                 : 12 b/s* ?% r  I& J" z4 y" M3 W/ k0 r
  55. Count of elements                        : 166
    " b, p, B2 L4 y/ |- I
  56. Stream size                              : 6.81 KiB (0%)9 Y. O; G& R; m$ s! N3 Y
  57. Language                                 : English
    ) B6 e* L$ K3 M/ d+ r% G5 g# y
  58. Default                                  : Yes! F8 G) W4 z) q6 y
  59. Forced                                   : No
    4 |5 J, n. O8 }7 D( c( {' C8 w
  60. 5 T& _* G* y8 s% b8 ]
  61. Menu% L! L" b. {5 _& {' E. C  Y2 z
  62. 00:00:00.000                             : en:Chapter 01
    2 ^" K% `. N: I( Z. C0 w5 i) i3 z8 C
  63. 00:08:19.040                             : en:Chapter 02
    3 T' _" M* I' ?$ Y8 N% Y
  64. 00:19:05.519                             : en:Chapter 03% o  E' j4 R4 ^8 i3 G- \
  65. 00:28:51.521                             : en:Chapter 04+ n0 X% ^( W" r, a
  66. 00:40:34.015                             : en:Chapter 05
    ; E9 Q, H; h. U7 s. r3 C; W7 Q
  67. 00:51:01.809                             : en:Chapter 06
    # q' r+ x! E# t
  68. 01:00:15.070                             : en:Chapter 07
    / j. `' M1 n! A& e5 {# I
  69. 01:10:18.464                             : en:Chapter 08
复制代码
* P# A8 T  S% p4 C2 g
泥人哥连出世记 The.Golem.1920.720p.BluRay.x264-GHOULS 3.28GB-2.png
/ u, T: _: l$ b* j% T
6 }$ Z( G$ a: t1 w2 c: h+ A: Z1 ~5 G) Y0 i; f

6 E* I+ P7 N! C# P
3 Y3 v- F9 I% i0 w7 f% x/ b- p  E2 y" n+ {0 H
% P1 O; M6 k9 L

' |* l6 I6 x: f0 P+ z  g1 m9 T
回复

使用道具 举报

级别:功成名就 Lv.9

注册时间
2019-4-24
最后登录
2020-6-29
听众
15
收听
0
主题
0
蓝光币
560 枚
贡献
0 点
发表于 2019-12-3 08:39:42 | 显示全部楼层
楼主发贴辛苦了,谢谢楼主分享!我觉得中国高清电影网是注册对了!
回复

使用道具 举报

懒得打字嘛,点击右侧快捷回复 【右侧内容,后台自定义】
您需要登录后才可以回帖 登录 | 立即注册

本版积分规则

Archiver|手机版|小黑屋| 中国高清网 ( ICP备17007870号-2 ) |网站地图 

GMT+8, 2020-7-5 07:56 , Processed in 0.226036 second(s), 39 queries .

Powered by HDchina X3.4

Copyright 2017-2019©HDchina.All right reserved

返回顶部 联系我们