查看: 138|回复: 3

[科幻片] 哥斯拉 Godzilla.1954.Criterion.720p.BluRay.x264-JRP 5.47GB

[复制链接]

 成长值: 5990

级别:资源管理组

注册时间
2017-10-20
最后登录
2020-7-5
听众
1
收听
0
主题
97450
蓝光币
167012 枚
贡献
21715 点
发表于 2019-12-2 20:43:07 | 显示全部楼层 |阅读模式
哥斯拉 Godzilla.1954.Criterion.720p.BluRay.x264-JRP 5.47GB-1.png
, I8 j: x7 D* E  s
4 @, G* C8 O# n$ [6 n译  名 哥斯拉 / Godzilla / Gojira / 原子恐龙 / 哥吉拉 / 哥吉拉的诞生(台) / 哥斯拉之诞生 / 大恐龙
9 ?6 a) f! [3 U( b! t9 l片  名 ゴジラ; O2 `7 C7 @- t/ L
年  代 1954) h2 c; c4 C6 Z; ?) n* w  ?3 N
产  地 日本
& p% v, K1 i6 M0 Q, r: s类  别 剧情 / 科幻 / 可骇
6 D: H2 `+ f" o" q: L# n9 m语  言 日语
6 I- d4 U& ]3 r3 W( E+ V3 v( i上映日期 1954-11-03
, N* r- G+ A1 b3 EIMDb评分  7.6/10 from 26476 users$ @1 z! ^. i' ^5 ^1 q
IMDb链接  https://www.imdb.com/title/tt0047034
2 B" \" n, a+ b' t4 g" e+ G, n豆瓣评分 7.5/10 from 2525 users
6 H. E( r$ k! Y# c' X豆瓣链接 https://movie.douban.com/subject/2059276/9 J8 b! g; t3 q5 p5 \
片  长 96 分钟
; d, Y  |& a* j+ K导  演 本多猪四郎  Ishir? Honda1 T" b; j, p7 O, X* Q
编  剧 村田武雄 Takeo Murata / 本多猪四郎  Ishir? Honda
/ E( m7 g& U( D/ J$ ?5 ]主  演 宝田明 Akira Takarada
" E8 D6 L" H% ^0 J       河内桃子& @7 |3 V6 H, A9 _1 p
       平田昭彦 Akihiko Hirata7 |# {& e9 r. e9 v- a
       志村乔 Takashi Shimura
0 U+ j/ o* ]. b. [2 q       堺左千夫 Sachio Sakai0 b7 a4 O6 Y" B6 r) \

8 i7 q: \8 o( `0 B& o0 v5 ~( ?. J: s. c/ y
标  签 日本 | 科幻 | 灾难 | 日本电影 | 本多猪四郎 | 哥斯拉 | 1954 | 1950s
5 F! X0 S& B6 I, J9 g) q6 g3 `- g9 ~/ M. d1 v. b3 B
简  介  
* C" N: w3 W; ^( D
* E" T: i' ]# g3 B- i* m  二战竣事后未几,日本南海惊现古怪事务,打捞船荣子丸在安静的海面上忽然遇难,幸存者寥寥,前往搜救的宾果丸也一去不返。未几,南海四周的岛屿大户岛遭遭到可骇的攻击,岛上的老人宣称这即是传闻中的怪兽哥斯拉捣蛋。古生物专家山根京平教授受命前往观察,按照现场遗留的痕迹判定,这个怪物是200万年前侏罗纪时代存活下来的恐龙,而且在原子弹辐射的影响下,化身为更具破坏力的可骇怪兽。该结论一经公布,便在日本国内引发轩然大波。政客和军队纷纷行动,意欲置哥斯拉于死地。而哥斯拉也闯入东京,停止一场扑灭性的破坏。人类的命运悬于一线……# f; e9 n( U9 @9 ^
  本片按照香山滋的科幻小说改编。" p8 m1 O! l( I0 j
  1. Video( k' d3 V8 R1 {4 j+ n& ]
  2. ID                                       : 14 n% T3 {- J. ?5 p* r; J6 w% ^
  3. Format                                   : AVC: C3 L/ f% }$ ^' t& x$ t4 R
  4. Format/Info                              : Advanced Video Codec+ c6 X4 K: q% v+ N& d) q
  5. Format profile                           : High@L4- \/ L- X% p; b# y' b: P  h
  6. Format settings                          : CABAC / 5 Ref Frames
    ( m. F! i9 J  i4 n! O; d
  7. Format settings, CABAC                   : Yes- E/ z1 k2 a1 r. V5 }! \% B# ^
  8. Format settings, Reference frames        : 5 frames
    1 Z$ O2 ]8 w% C( \/ k. \* l
  9. Codec ID                                 : V_MPEG4/ISO/AVC+ z8 l* o  v- D3 q/ f, ]- b1 G$ S
  10. Duration                                 : 1 h 36 min7 R: v/ f( K5 J
  11. Bit rate                                 : 7 572 kb/s
    0 k' n0 A  ]! N* C% `2 D
  12. Width                                    : 960 pixels
    " L1 i0 a/ |+ _+ w5 F! r
  13. Height                                   : 720 pixels2 c$ P6 Q0 T  @) p
  14. Display aspect ratio                     : 4:3
    0 u- e& x. `6 j9 ]. _  D/ l
  15. Frame rate mode                          : Constant  T8 R) u+ R- I( a
  16. Frame rate                               : 23.976 FPS
    ! ^: O4 o3 S: N4 c: @" ?$ C; Y% a4 A
  17. Color space                              : YUV( H( v& J* o" J! A/ Y$ p; Y
  18. Chroma subsampling                       : 4:2:02 M. z$ h- J) Z1 q' T' j
  19. Bit depth                                : 8 bits9 Z) @" j: m! T6 |3 r
  20. Scan type                                : Progressive  C: U8 ~& f9 a- ?! C1 e
  21. Bits/(Pixel*Frame)                       : 0.457
    " {6 v3 X9 t% o: J+ W$ ~! E' C: ?
  22. Stream size                              : 5.11 GiB (93%)$ w, l" B# N* x: c' q" E
  23. Writing library                          : x264 core 158 r2984 3759fcb" R" g1 W) f; e' q4 M2 F* e
  24. Encoding settings                        : cabac=1 / ref=5 / deblock=1:0:0 / analyse=0x3:0x133 / me=umh / subme=7 / psy=1 / psy_rd=1.00:0.00 / mixed_ref=1 / me_range=16 / chroma_me=1 / trellis=2 / 8x8dct=1 / cqm=0 / deadzone=21,11 / fast_pskip=0 / chroma_qp_offset=-2 / threads=12 / lookahead_threads=2 / sliced_threads=0 / nr=0 / decimate=1 / interlaced=0 / bluray_compat=0 / constrained_intra=0 / bframes=3 / b_pyramid=2 / b_adapt=1 / b_bias=0 / direct=3 / weightb=1 / open_gop=0 / weightp=2 / keyint=250 / keyint_min=23 / scenecut=40 / intra_refresh=0 / rc_lookahead=50 / rc=2pass / mbtree=1 / bitrate=7572 / ratetol=1.0 / qcomp=0.60 / qpmin=0 / qpmax=69 / qpstep=4 / cplxblur=20.0 / qblur=0.5 / ip_ratio=1.40 / aq=1:1.00
    " U# X( ^6 l$ r6 @
  25. Language                                 : Japanese5 k) u: G0 ~6 J2 ]
  26. Default                                  : Yes
    3 ?( N, @) v- Y/ t
  27. Forced                                   : No
      S2 g5 n2 |7 b) |6 X" O4 X

  28. 6 ?5 J% _0 C" t7 P, m3 u
  29. Audio8 k8 T3 L% z( ^7 G6 J: e
  30. ID                                       : 2/ A1 T1 T9 R/ }8 W1 t
  31. Format                                   : FLAC5 i6 g& c4 u; h# b; L) s
  32. Format/Info                              : Free Lossless Audio Codec
    ) [  {/ K2 u. x' U
  33. Codec ID                                 : A_FLAC1 _2 ^; i  c5 v$ M3 T% j
  34. Duration                                 : 1 h 36 min& @+ m7 o( [0 Y
  35. Bit rate mode                            : Variable
    ; c+ w9 V: s* C; ]6 O* v7 W
  36. Bit rate                                 : 532 kb/s1 x6 S( x. h& p1 O# M
  37. Channel(s)                               : 1 channel
    / L% W0 w- y" a/ G0 C
  38. Channel layout                           : C
    3 P6 o6 ]0 M% p; o" ^
  39. Sampling rate                            : 48.0 kHz
    / n6 a  d# l- A
  40. Frame rate                               : 11.719 FPS (4096 SPF)$ A2 w' C2 P! T
  41. Bit depth                                : 24 bits
    ) K% `3 j, ?: ]6 `
  42. Compression mode                         : Lossless
    . u& K& Y9 P% X1 a5 W
  43. Stream size                              : 367 MiB (7%)
    . Q/ _9 U. k" P
  44. Writing library                          : libFLAC 1.3.2 (UTC 2017-01-01)8 b, C0 w% |/ V6 o& g6 k( V( X
  45. Language                                 : Japanese
    . W5 v* `" q/ U( h; z
  46. Default                                  : Yes
    ! z$ Z8 K9 }% h* m& b7 d0 r
  47. Forced                                   : No
    4 B' r/ \5 \5 z) d! K
  48. 7 U8 G0 {6 j- K( L. c4 _
  49. Text
    $ e7 w, G/ l+ I  F4 w% H9 p: e
  50. ID                                       : 3
    : @* v3 N8 [5 h5 A& y% T1 ^4 n3 J
  51. Format                                   : UTF-8
    0 {5 [! i: ?4 O8 q
  52. Codec ID                                 : S_TEXT/UTF80 u" [8 O+ B7 s0 h( r
  53. Codec ID/Info                            : UTF-8 Plain Text
    ( `2 l, c2 _; l( v6 {# ?
  54. Duration                                 : 1 h 36 min
    5 H# l+ ]. N: d5 h
  55. Bit rate                                 : 31 b/s
    ' }, x1 _  r6 N) @  ~/ [
  56. Count of elements                        : 721
    / |4 U2 a( Z+ Y+ a
  57. Stream size                              : 22.5 KiB (0%)7 }( d) A! m- c$ R
  58. Language                                 : English$ F  r7 q' p7 G* f5 C" H: B
  59. Default                                  : Yes$ B" s8 W$ J! [5 I
  60. Forced                                   : No
    0 D* Z& A5 r6 f5 d7 G6 M5 d

  61.   q5 P0 u& H. ]3 ?# @! K4 i5 ?# r
  62. Menu' O( @5 t9 b9 u" I0 R$ ^1 `# ^
  63. 00:00:00.000                             : en:Chapter 01+ ?# `: g5 V5 M, {; I  ?- v( d5 b
  64. 00:04:41.364                             : en:Chapter 02
    # Y$ U; F$ S, w) m( F% _$ s" }& l& i
  65. 00:08:24.337                             : en:Chapter 03
    & E- A) G( m: }3 S
  66. 00:10:25.958                             : en:Chapter 04: M, Z/ K0 g; K( r; {4 }
  67. 00:15:10.034                             : en:Chapter 05
    ( C- Q- s* f' F6 R/ O5 y
  68. 00:17:17.119                             : en:Chapter 06
    3 S8 M0 g* A8 Q' P/ ^, g* L( k
  69. 00:21:16.149                             : en:Chapter 074 F1 I) S& e3 B
  70. 00:23:35.414                             : en:Chapter 08
    5 v3 F( ?7 ^, t# n
  71. 00:28:24.703                             : en:Chapter 09) ?3 _, u6 t& S  o1 T' i
  72. 00:32:04.380                             : en:Chapter 10
    : X+ r( q$ K+ R
  73. 00:33:17.036                             : en:Chapter 111 x4 e- n7 e/ M  l! ^
  74. 00:37:17.818                             : en:Chapter 12
    : {5 |2 o! F+ S  c1 V$ i
  75. 00:42:35.469                             : en:Chapter 130 A( v; c6 A; C6 p! {- I- X' _
  76. 00:48:13.140                             : en:Chapter 14
    3 t% C/ S' Q" z. H& [
  77. 00:54:12.249                             : en:Chapter 151 w7 F# F/ `! J9 V) s) b0 U
  78. 01:00:01.598                             : en:Chapter 16$ o9 O5 g1 H5 i0 e
  79. 01:06:19.809                             : en:Chapter 172 g- O) `$ V0 K9 L$ v, a9 y# B! |- V
  80. 01:09:28.289                             : en:Chapter 18) V7 c- L1 x( R0 q
  81. 01:11:17.898                             : en:Chapter 19
    7 ^+ _; Z4 a: U6 X
  82. 01:15:51.880                             : en:Chapter 20& c8 \: U: {7 ^
  83. 01:21:00.689                             : en:Chapter 21
    " @. y  r) M8 V. B
  84. 01:24:57.675                             : en:Chapter 228 P/ o! B+ T1 a2 W' ^' X* |% K
  85. 01:28:20.461                             : en:Chapter 23
复制代码

# ]& Q" C1 ^4 {7 s) A 哥斯拉 Godzilla.1954.Criterion.720p.BluRay.x264-JRP 5.47GB-2.png
1 K+ B& d8 I# O4 _1 U5 W4 \
" a; Z3 [( n: q0 W. S
0 d; D$ f% |2 D3 V3 P
- o, l5 G% S6 E4 w% a3 W5 x) q5 c: S
3 [. F3 j8 z# b4 ], j' S0 f0 `8 K% @* C; H

6 }3 `3 z2 G6 A) a7 G" z  ~  {! o
回复

使用道具 举报

级别:功成名就 Lv.9

注册时间
2019-4-24
最后登录
2020-6-29
听众
15
收听
0
主题
0
蓝光币
560 枚
贡献
0 点
发表于 2019-12-3 08:40:23 | 显示全部楼层
楼主发贴辛苦了,谢谢楼主分享!我觉得中国高清电影网是注册对了!
回复

使用道具 举报

级别:荣升主角 Lv.5

注册时间
2019-4-11
最后登录
2020-7-4
听众
15
收听
0
主题
0
蓝光币
275 枚
贡献
0 点
发表于 2019-12-20 09:41:49 | 显示全部楼层

" T% r+ P. k2 p! e这个帖子不回对不起自己!我想我是一天也不能离开中国高清电影网
回复

使用道具 举报

级别:普通观众 Lv.2

注册时间
2020-3-19
最后登录
2020-4-17
听众
2
收听
0
主题
0
蓝光币
41 枚
贡献
0 点
QQ
发表于 2020-3-19 04:08:16 | 显示全部楼层
大大好人,一生平安
回复

使用道具 举报

懒得打字嘛,点击右侧快捷回复 【右侧内容,后台自定义】
您需要登录后才可以回帖 登录 | 立即注册

本版积分规则

Archiver|手机版|小黑屋| 中国高清网 ( ICP备17007870号-2 ) |网站地图 

GMT+8, 2020-7-5 09:49 , Processed in 0.174863 second(s), 40 queries .

Powered by HDchina X3.4

Copyright 2017-2019©HDchina.All right reserved

返回顶部 联系我们