查看: 128|回复: 1

[科幻片] 怪兽王哥斯拉 Godzilla.King.of.the.Monsters.1956.Criterion.720p.BluRay.x264-JRP 4.38GB

[复制链接]

 成长值: 5990

级别:资源管理组

注册时间
2017-10-20
最后登录
2020-7-5
听众
1
收听
0
主题
97450
蓝光币
167004 枚
贡献
21715 点
发表于 2019-12-2 20:41:32 | 显示全部楼层 |阅读模式
怪兽王哥斯拉 Godzilla.King.of.the.Monsters.1956.Criterion.720p.BluRay.x264-JRP 4.38GB-1.png ! X3 j  c( m. c7 S+ K( y+ L' T" ]

% _. E$ Z% e. l" T/ M8 m译  名 怪兽王哥斯拉3 X3 U- W2 c* u5 @. A# R
片  名 Godzilla, King of the Monsters!4 z9 R* [8 A3 ]# q2 B7 u
年  代 1956
3 v, S" o! _9 S! I产  地 美国 / 日本
+ ^/ y9 D4 ~% [1 ^9 Z' s类  别 行动 / 科幻 / 可骇7 e" \7 j8 r' ^, S
语  言 英语 / 日语
- x, w1 F% t2 @+ P上映日期 1956-04-27( k5 \  T, @: @& ]- s% W- I2 z
IMDb评分  6.6/10 from 6263 users
7 N4 g* o& g, X* _IMDb链接  http://www.imdb.com/title/tt0197521! C& Z, q, o) o9 d) l* k' L0 H
豆瓣评分 5.8/10 from 246 users" x- U  h9 l. Z  t/ C
豆瓣链接 https://movie.douban.com/subject/1294095/
: V& P5 a( ]7 Y8 ]0 f  f. h" N% [片  长 80 分钟(original U.S. theatrical release version)4 s% A" B; f3 Z1 t2 ^! x% p# ]6 |
导  演 本多猪四郎  Ishir? Honda / Terry O. Morse1 [. b5 B5 H. M5 G# Z
编  剧 Al C. Ward / 本多猪四郎  Ishir? Honda / 香山滋 Shigeru Kayama
0 ^' U' B# _* @- Q主  演 雷蒙德·布尔 Raymond Burr
+ P4 Q! T2 W! n. ]. z3 G6 z& X      志村乔 Takashi Shimura5 V  J- u1 K4 Z7 Q0 A6 a
      宝田明 Akira Takarada# }+ F4 l" `) x( A6 ]
      平田昭彦 Akihiko Hirata; q, v0 \1 R' L' }9 v9 j
      小川虎之助 Toranosuke Ogawa
6 g7 j8 e, v, K; w- |( z) V      Toyoaki Suzuki  k5 p/ k% n" ~7 a* _
+ m0 z9 Y6 y8 r: Y" W

6 W. F7 }) u3 F  a" w( a标  签 日本 | 科幻 | 哥斯拉 | 本多猪四郎 | 美国 | 日本电影 | 1950s | 美国电影2 ^- P3 t1 {3 Q2 y2 i& r; D

- Z. p6 d2 }& S7 j( R) ?9 i简  介  
; D' Z" }  {7 j' B7 r+ B/ T+ U
  来自美国《天下消息》报社的记者斯蒂芬·马丁(雷蒙德·波尔 Raymond Burr 饰)乘飞机前往开罗,在东京起色时代却遭受令他永生难忘的工作。日本方面一艘打捞船忽然与陆地落空联系,前往救济的船只也不幸遇难。从幸存者的口中众人得知,这些遇难船遭到了可骇的怪物哥斯拉的攻击。著名古生物学家山根京平博士对遭受攻击的大户岛停止勘查,证实哥斯拉实为两百万年前侏罗纪时代存活下来的恐龙,由于遭到原子弹的辐射和氢弹实验的影响而发生突变,并重现人世。人类面临空前的灾难,斯蒂芬成为了这场灾难的见证者……# ^, I( z3 p# k) K
本片按照香山滋的科幻小说改编,该版本为美国重新剪辑并在国内公映的版本。8 B9 H& y$ V( H8 c7 Y
& m3 d1 w' f( b0 M; G0 m) {
  1. Video! g7 V5 Z8 C! l# K
  2. ID                                       : 1
    ( {4 i! R! f9 }7 V" m! A5 I" f
  3. Format                                   : AVC
      R% `2 d; W' @0 F7 n
  4. Format/Info                              : Advanced Video Codec: D& k, Z4 v: u3 `- a( Y
  5. Format profile                           : High@L4
    + c& \0 j. E# m+ o4 [1 u6 i
  6. Format settings                          : CABAC / 5 Ref Frames# C8 W  |8 u* g+ k, R4 g
  7. Format settings, CABAC                   : Yes  ?3 k/ S8 D' A/ S7 ]9 u" F+ X0 c$ u
  8. Format settings, Reference frames        : 5 frames5 K4 J* Q$ z% s: L  z+ S; v/ T
  9. Codec ID                                 : V_MPEG4/ISO/AVC% L$ X7 _2 j0 h+ p5 k: x2 V  N+ w( F
  10. Duration                                 : 1 h 21 min6 M  `2 |3 S" B1 N0 {/ i
  11. Bit rate                                 : 7 216 kb/s# O5 m4 X; F% k* u
  12. Width                                    : 960 pixels
      }9 V; t: _$ ~4 N4 K9 G1 u
  13. Height                                   : 720 pixels
    & G5 e9 S8 l1 |5 b) s  B( z
  14. Display aspect ratio                     : 4:3
    ' l; R" ]8 |: D" B. _/ }" J0 i
  15. Frame rate mode                          : Constant5 I) }. K+ L- w
  16. Frame rate                               : 23.976 FPS3 q1 g1 g* t" k* t) k) f. [$ T
  17. Color space                              : YUV
    8 r# }9 [" S; s# l3 E0 Z; Z# b/ o# B6 Y* t
  18. Chroma subsampling                       : 4:2:0
    : A3 {1 N1 n/ J- v4 k
  19. Bit depth                                : 8 bits  T6 A4 M+ X" f$ L* j
  20. Scan type                                : Progressive
    / a8 g9 M' _, l. u+ C' z% i& D! o
  21. Bits/(Pixel*Frame)                       : 0.435% ^' X6 a* }" d+ W+ T
  22. Stream size                              : 4.08 GiB (93%), w7 r4 b7 a1 V% a! Q
  23. Writing library                          : x264 core 158 r2984 3759fcb+ o( M: r$ i$ Z6 n1 a$ {: \+ |
  24. Encoding settings                        : cabac=1 / ref=5 / deblock=1:0:0 / analyse=0x3:0x133 / me=umh / subme=7 / psy=1 / psy_rd=1.00:0.00 / mixed_ref=1 / me_range=16 / chroma_me=1 / trellis=2 / 8x8dct=1 / cqm=0 / deadzone=21,11 / fast_pskip=0 / chroma_qp_offset=-2 / threads=12 / lookahead_threads=2 / sliced_threads=0 / nr=0 / decimate=1 / interlaced=0 / bluray_compat=0 / constrained_intra=0 / bframes=3 / b_pyramid=2 / b_adapt=1 / b_bias=0 / direct=3 / weightb=1 / open_gop=0 / weightp=2 / keyint=250 / keyint_min=23 / scenecut=40 / intra_refresh=0 / rc_lookahead=50 / rc=2pass / mbtree=1 / bitrate=7216 / ratetol=1.0 / qcomp=0.60 / qpmin=0 / qpmax=69 / qpstep=4 / cplxblur=20.0 / qblur=0.5 / ip_ratio=1.40 / aq=1:1.00
    % _9 s' u& D) l: u8 g0 k5 @* I
  25. Language                                 : Japanese
    * D# u; E, @) b# h
  26. Default                                  : Yes
    6 j/ ~* B. R8 U' O. [3 p, H  D% k! G
  27. Forced                                   : No
    6 \' y3 @1 Z  x" S6 F  ]' S

  28. 6 e/ u- F1 Z' Z
  29. Audio, n/ ]; d% s( {4 {( m
  30. ID                                       : 26 i, u. p. J2 {
  31. Format                                   : FLAC
    - @$ \7 j. j; X
  32. Format/Info                              : Free Lossless Audio Codec
    ; c% X0 ?4 d: s. n& s* r
  33. Codec ID                                 : A_FLAC3 i# [: I( r# j( W4 S6 B9 S7 @. S
  34. Duration                                 : 1 h 21 min; Z6 R' l9 p+ f: u
  35. Bit rate mode                            : Variable
    2 j0 S7 J9 v9 o
  36. Bit rate                                 : 511 kb/s
    $ Z( P1 T! X5 d  I; ]2 d, y/ P4 G
  37. Channel(s)                               : 1 channel
    9 p" b" O+ h5 h: E8 n& m+ _9 Y2 Q7 z
  38. Channel layout                           : C0 k8 C3 L% {9 J+ [5 e1 C- Q8 m. f9 _
  39. Sampling rate                            : 48.0 kHz% e$ P. X2 F* f. K5 c
  40. Frame rate                               : 11.719 FPS (4096 SPF)
    ; H" p, P9 Q/ _* k0 c
  41. Bit depth                                : 24 bits
    " s+ [: @5 \5 i1 E
  42. Compression mode                         : Lossless
    + w# x3 E1 ]/ n" u
  43. Stream size                              : 296 MiB (7%)
    " e4 v5 s' e& l/ U4 R) u
  44. Writing library                          : libFLAC 1.3.2 (UTC 2017-01-01)
    % `0 {- h9 ^# O" s* i
  45. Language                                 : Japanese
    # P8 b; N2 R2 d2 `& z$ L5 P( i/ o
  46. Default                                  : Yes
    ! z: \4 |2 Q: y. s6 \. ^4 s* z
  47. Forced                                   : No
    6 M# \5 c9 e  H8 U" W* t9 M. x/ r: A

  48. 3 D! i% Y2 R' d/ W$ Y3 o) \
  49. Text5 T% J1 g% ]: `) ~" s1 Y
  50. ID                                       : 35 y2 u/ }7 V' ~! P4 K! F
  51. Format                                   : UTF-8
    3 J( `. W9 L4 \1 Z! b% Z) M
  52. Codec ID                                 : S_TEXT/UTF86 I# }9 k4 q3 x8 g2 j* c2 P* V+ Q
  53. Codec ID/Info                            : UTF-8 Plain Text) ]+ k. I/ q' v7 A: W( B
  54. Duration                                 : 1 h 20 min
    5 H0 i9 \0 j' e! {/ u# \% v
  55. Bit rate                                 : 42 b/s5 j( [$ v2 W2 ]) d  T& V# P( q
  56. Count of elements                        : 665
    9 b$ W* u8 ^4 H! l  F; T& N
  57. Stream size                              : 24.7 KiB (0%), y% |% j- @. `' A3 E, s
  58. Language                                 : English
    # o. [' H2 H; j, @: X
  59. Default                                  : Yes$ L: t1 F  f6 l) T, E! t  c
  60. Forced                                   : No
    3 }5 V6 M- V! L- }' m
  61. & V3 P& q: F& Z/ N; @8 Q
  62. Menu
      T# d+ H1 G# O. R- L& p
  63. 00:00:00.000                             : en:Chapter 01
    ( G7 Y7 n) ~9 b5 g9 p3 q* O+ c
  64. 00:05:12.770                             : en:Chapter 02
    4 a9 z: }5 y: }: d" d
  65. 00:06:40.316                             : en:Chapter 03
    6 C( O$ |5 H3 a* f  }
  66. 00:09:25.523                             : en:Chapter 04
      i+ {% q, N3 ]* e; Y+ o
  67. 00:11:53.003                             : en:Chapter 05
    1 l6 l+ `$ o: ^
  68. 00:14:04.218                             : en:Chapter 06
    ) E4 E3 W, }$ ?! T5 h
  69. 00:18:20.474                             : en:Chapter 07
    2 E; y% S" s8 l* }9 y
  70. 00:21:28.829                             : en:Chapter 08
    6 @7 s2 Z. \9 S0 G0 p8 F' s: Q
  71. 00:25:18.558                             : en:Chapter 090 f6 F. i% W# D$ x2 G1 B2 T5 a
  72. 00:30:07.013                             : en:Chapter 100 q& [! G2 Z: l! k8 C0 d
  73. 00:32:08.468                             : en:Chapter 11) _) H( D2 k' J, R
  74. 00:33:57.660                             : en:Chapter 12
    , i+ U6 T% o. Y* R0 }6 @+ K9 X8 Z
  75. 00:37:40.925                             : en:Chapter 13! m* H/ R$ k. Q4 Z( j& c
  76. 00:41:21.145                             : en:Chapter 14
    3 A( D/ k( X( V2 o8 ~
  77. 00:45:42.030                             : en:Chapter 15
    : {5 d7 Y* o8 z9 P7 a9 O. L
  78. 00:48:28.196                             : en:Chapter 16
    + x0 Q2 S( L5 x1 t4 O1 U- `' j
  79. 00:53:57.859                             : en:Chapter 171 p8 Z, T/ \, D2 `+ r" d% u9 A, C5 O
  80. 00:59:10.004                             : en:Chapter 187 e: @2 x! H3 P4 B
  81. 01:01:24.764                             : en:Chapter 190 @: j1 Q, H0 _
  82. 01:04:58.561                             : en:Chapter 20
    0 P( i" j1 c; M7 \$ a1 g% M
  83. 01:11:07.638                             : en:Chapter 21
复制代码

3 l7 [1 ~2 V1 [ 怪兽王哥斯拉 Godzilla.King.of.the.Monsters.1956.Criterion.720p.BluRay.x264-JRP 4.38GB-2.png 5 u& _0 G3 E+ J, \1 {4 \  ]

. W' \4 X2 d' l$ ~4 d6 l
4 x8 U, Q  g/ ?, o  P2 W" W9 Z' P6 ?) j
( O9 g: y7 l7 J4 e" M* [- _) K
; W/ I; U4 E' m9 i
7 C2 w  H) i" N% E/ N$ B" B& \; G7 F8 u

/ K; h0 ?' B( k& k% ~
回复

使用道具 举报

级别:功成名就 Lv.9

注册时间
2019-4-24
最后登录
2020-6-29
听众
15
收听
0
主题
0
蓝光币
560 枚
贡献
0 点
发表于 2019-12-3 08:40:54 | 显示全部楼层
楼主发贴辛苦了,谢谢楼主分享!我觉得中国高清电影网是注册对了!
回复

使用道具 举报

懒得打字嘛,点击右侧快捷回复 【右侧内容,后台自定义】
您需要登录后才可以回帖 登录 | 立即注册

本版积分规则

Archiver|手机版|小黑屋| 中国高清网 ( ICP备17007870号-2 ) |网站地图 

GMT+8, 2020-7-5 09:38 , Processed in 0.177543 second(s), 39 queries .

Powered by HDchina X3.4

Copyright 2017-2019©HDchina.All right reserved

返回顶部 联系我们