查看: 128|回复: 1

[喜剧片] 大搜查之女 Lady.Cop.and.Papa.Crook.2008.MANDARiN.DUBBED.DC.720p.BluRay.x264-REGRET 4.37GB

[复制链接]

 成长值: 5990

级别:资源管理组

注册时间
2017-10-20
最后登录
2020-7-5
听众
1
收听
0
主题
97450
蓝光币
166944 枚
贡献
21715 点
发表于 2019-12-2 20:36:31 | 显示全部楼层 |阅读模式
大搜寻之女 Lady.Cop.and.Papa.Crook.2008.MANDARiN.DUBBED.DC.720p.BluRay.x264-REGRET 4.37GB-1.png
. F7 |/ m, S- Z
) z  m+ L4 E7 c, Q+ {译  名 Lady Cop & Papa Crook / 大搜寻. D% n1 d, }0 ?( T, J1 ~" t
片  名 大搜寻之女' p, `6 m, p4 P5 v
年  代 2008' ]8 w3 z- H1 h: H
产  地 中国香港 / 中国大陆& X; R' M; T7 ]
类  别 笑剧 / 惊悚 / 犯罪4 J4 ?, t9 n$ U/ E1 o' m
语  言 粤语 / 普通话  ~; j( p3 J2 g6 S8 G5 J3 i0 L0 C
上映日期 2008-12-246 K. B$ e5 T; e3 s# W7 i+ T
IMDb评分  5.2/10 from 269 users8 j; W# n( M4 _- q& K4 T
IMDb链接  https://www.imdb.com/title/tt1258130
& L6 [1 i1 ^  H5 o豆瓣评分 5.9/10 from 18728 users
' r( Z( E- |+ J9 [6 e0 g豆瓣链接 https://movie.douban.com/subject/3136488/
* u: N$ y4 ~* C! S' q5 f片  长 92分钟
9 H: s  V" W: \/ q7 a! z# f导  演 麦兆辉 / 庄文强
" C/ m4 ?6 e5 S: B编  剧 麦兆辉 / 庄文强
. c& F. b' U  E主  演 郑秀文
8 h6 I; A0 k0 G$ p       陈奕迅# _- ^7 S, R! W% q
       张国立& n4 R7 ~3 m7 A4 e; B0 f! J! e
       董勇2 M/ Z- n5 @* N4 X* a) |" g
       杜汶泽& \8 c; C# g+ x/ L8 S
       叶璇) K; F3 u3 S: `
       徐子珊
8 w0 q5 `' C2 y- B2 P5 {       刘浩龙
4 o1 b! I$ I' @4 }' s/ \- M       任贤齐2 c/ m3 |- C5 O$ _  i  T+ x
       陈子聪9 S: p; c1 i' r/ y+ e- q
       黄德斌
, \1 Y8 n  Y8 z6 |: h+ w       谭耀文9 U' I* S$ n9 m" b8 R# v+ A# g4 H
       谷祖琳
9 {* j& v( |. e, D' v5 J, L- f; H  g( f- B9 N  L0 Q6 x: C' u: B
" [! {$ L5 G% `; S
标  签 郑秀文 | 陈奕迅 | 香港电影 | 香港 | 麦兆辉 | 警匪 | 2008 | 电影
8 ~2 I1 e: v  X& g3 D3 u
% @# \2 W1 T$ @( p1 }3 S! v简  介  
/ l* J) `  T+ {! |) B4 p6 g+ [" @7 g& d, D1 H! X* s' v  t
  33岁还未成婚的香港女警司徒慕莲(郑秀文饰)一向为自己的亲事忧愁。男友十年前的许诺,现在成了她与同事间的笑谈。一日,走私团体的头目霍青松(陈奕迅饰)的儿子被绑架,司徒慕莲受命处置这宗案件。但霍青松一家为避免因走私之事被警方控诉,处处表示出分歧作的态度,而此时司徒慕莲发现自己有了身孕。
. K7 C, e# X. E! L  黑白两道在一间大屋下貌和神离,霍家高低各自心胸暗计,同时,大陆警方也传来了结合破案的消息。作为“剩女”的司徒慕莲、作为差人的司徒慕莲,她到底能否处理眼前面临的一切?8 X( j- O4 L: _( x8 }" ], R& s0 l# Q
  1. Video
    " z2 v) C% [* X, n# S. l8 }: N
  2. ID                                       : 1
    8 U& |8 J: X; }" v
  3. Format                                   : AVC! s" }3 d: d' v' |2 ?
  4. Format/Info                              : Advanced Video Codec( t  @; U0 K. c- m1 \+ M7 i
  5. Format profile                           : High@L4- ^" g0 c5 z/ G; |. c0 x0 p& U* x
  6. Format settings                          : CABAC / 5 Ref Frames% O9 [* }) c) |: q$ T' g" i
  7. Format settings, CABAC                   : Yes7 C4 U* n# v& Z4 ]' x, `) N
  8. Format settings, Reference frames        : 5 frames
    - g  q+ J% P  i3 m) H
  9. Codec ID                                 : V_MPEG4/ISO/AVC
    % a9 ]7 c+ D* y& H. p4 A
  10. Duration                                 : 1 h 38 min7 |' j1 @  D( @
  11. Bit rate                                 : 5 730 kb/s) t- `1 [+ R1 q8 ]- V
  12. Width                                    : 1 280 pixels
    * R" \) ?6 A$ Q% h. y5 o3 s
  13. Height                                   : 720 pixels2 |+ l: [+ C, y6 `( ?; s
  14. Display aspect ratio                     : 16:9
    1 a$ _8 w+ w, b5 V  p
  15. Frame rate mode                          : Constant
    : M. G0 @1 B( J/ T8 ~# l2 d
  16. Frame rate                               : 24.000 FPS
    + l2 G0 g; ^9 n: l
  17. Color space                              : YUV, K1 K! H" S* H  h! K+ E" B& Y
  18. Chroma subsampling                       : 4:2:0: y( q8 g# `$ X; g
  19. Bit depth                                : 8 bits1 y  W7 d7 Q- c' k! W4 B+ @
  20. Scan type                                : Progressive" t  [" C8 U2 u
  21. Bits/(Pixel*Frame)                       : 0.259$ b1 n% R( h1 q
  22. Stream size                              : 3.93 GiB (90%)& X9 h8 K! u, r/ r" P
  23. Writing library                          : x264 core 158 r2988 7817004
    0 n7 b' F1 h* C% m; ]
  24. Encoding settings                        : cabac=1 / ref=5 / deblock=1:-3:-3 / analyse=0x3:0x133 / me=umh / subme=9 / psy=1 / psy_rd=1.00:0.00 / mixed_ref=1 / me_range=16 / chroma_me=1 / trellis=2 / 8x8dct=1 / cqm=0 / deadzone=21,11 / fast_pskip=0 / chroma_qp_offset=-2 / threads=22 / lookahead_threads=1 / sliced_threads=0 / nr=0 / decimate=1 / interlaced=0 / bluray_compat=0 / constrained_intra=0 / bframes=3 / b_pyramid=2 / b_adapt=1 / b_bias=0 / direct=3 / weightb=1 / open_gop=0 / weightp=2 / keyint=240 / keyint_min=24 / scenecut=40 / intra_refresh=0 / rc_lookahead=50 / rc=2pass / mbtree=1 / bitrate=5730 / ratetol=1.0 / qcomp=0.60 / qpmin=0 / qpmax=69 / qpstep=4 / cplxblur=20.0 / qblur=0.5 / ip_ratio=1.40 / aq=1:1.00
    9 X, Q9 }9 C) y" B1 Y
  25. Language                                 : English  G5 r% @/ ]# H, @
  26. Default                                  : Yes% ~0 S0 B+ h" A3 Z) j
  27. Forced                                   : No
    / h, Y1 p. E0 f1 E& F0 _0 }  T  j
  28. & o' M7 d" Y+ w" ^7 E$ d  B: j
  29. Audio; c4 V* G+ K* `+ f
  30. ID                                       : 2( C9 d. ~2 O) J0 \7 F8 t; I
  31. Format                                   : AC-3; D+ ~8 O/ D, i/ W( Q
  32. Format/Info                              : Audio Coding 3# ~+ Q* ~* a7 S/ l, U" T2 m
  33. Commercial name                          : Dolby Digital
    ) @4 l' h' u6 h6 u3 u2 p! N% r
  34. Codec ID                                 : A_AC3
    , }* i! H3 g# {  F
  35. Duration                                 : 1 h 38 min2 ^1 _3 S) Q' y' `9 \' U
  36. Bit rate mode                            : Constant; G3 t2 H- X4 @6 U" x! U7 e  {
  37. Bit rate                                 : 640 kb/s( I, q/ T7 k+ ]
  38. Channel(s)                               : 6 channels" n7 e; \! B0 q' g+ k' }
  39. Channel layout                           : L R C LFE Ls Rs
    0 B/ |' ]" A, g( @. ^
  40. Sampling rate                            : 48.0 kHz
    / f- k, P9 C3 Q. V* E
  41. Frame rate                               : 31.250 FPS (1536 SPF)
    4 D9 ~7 R6 A, }7 g
  42. Bit depth                                : 16 bits
    ( O: U9 @" |7 l  z1 U/ P( A$ f) Y2 F6 V
  43. Compression mode                         : Lossy! B9 ]/ q# L) P% M6 _( G6 M. A" n
  44. Stream size                              : 450 MiB (10%)6 j, q2 A$ ]2 @+ @; E( @
  45. Language                                 : Chinese
    ) K0 _( f% k1 m) q0 \( A# p
  46. Service kind                             : Complete Main! R) `! h) r* s, [; T& S- [
  47. Default                                  : Yes( @( d/ v5 Q7 G% _( r$ l
  48. Forced                                   : No0 B( @7 o( H' [2 c& S
  49. # m$ d( P  @! z6 G. b, t
  50. Menu7 {% U: L$ Y& o5 {& b
  51. 00:00:00.000                             : en:00:00:00.000
    # l) k; A4 u# t
  52. 00:06:34.000                             : en:00:06:34.000: f. g# w- P( c9 a  ?4 J$ t
  53. 00:11:44.000                             : en:00:11:44.0001 ]& ]; W$ W  t! ^, N6 n5 `: @
  54. 00:15:12.000                             : en:00:15:12.000& ^  |1 n$ r8 Z% ~
  55. 00:18:30.000                             : en:00:18:30.000
    7 i9 F% P' l6 c$ k/ X* C, J
  56. 00:23:42.000                             : en:00:23:42.000( ^; T7 u4 k8 @: }4 T5 ~8 y5 C& H
  57. 00:26:16.000                             : en:00:26:16.0006 b, W/ i) Q: M' r: @% c
  58. 00:31:00.000                             : en:00:31:00.000
    . ^8 v: L+ ]% K& [- j4 P! \
  59. 00:36:48.000                             : en:00:36:48.000$ h% o  n6 C: o4 r& A0 t, L5 c
  60. 00:40:53.000                             : en:00:40:53.0007 W6 c+ v. g; Y  x1 |: k
  61. 00:45:48.000                             : en:00:45:48.0000 s8 W) z' I  d0 ?
  62. 00:50:18.000                             : en:00:50:18.0007 E8 q8 @4 i+ j
  63. 00:54:44.000                             : en:00:54:44.000
      H: G2 d2 a# I+ G1 K
  64. 01:00:49.000                             : en:01:00:49.000
    ! A; i! {' N! m4 A  h+ T
  65. 01:07:13.000                             : en:01:07:13.000
    0 P6 w. A+ D3 `3 e; ?
  66. 01:11:05.000                             : en:01:11:05.000
    % e2 G7 K+ |/ z  L2 B# d' H9 N
  67. 01:17:30.000                             : en:01:17:30.000
    2 M0 p8 A# G# d' c+ d
  68. 01:21:55.000                             : en:01:21:55.000! s2 g$ p7 _' t
  69. 01:27:50.708                             : en:01:27:50.708" u0 Z9 B. W. a' S: F1 T
  70. 01:35:26.000                             : en:01:35:26.000
复制代码
6 n2 K& L) i/ ]% v
大搜寻之女 Lady.Cop.and.Papa.Crook.2008.MANDARiN.DUBBED.DC.720p.BluRay.x264-REGRET 4.37GB-2.png
" n2 |1 ^* a, Z( w. F: J# v7 Y5 T
3 o" Y: P  Y/ J' L. ], N
' t/ g2 N) U& C; g8 _" ?; @, b3 T8 U9 p2 I1 ~
; C( h3 P( r) k2 K3 r3 S1 @% K9 t- y
. F6 z2 T( p, J$ @  a( y; ^3 {" {

6 S/ c  J; `* p
回复

使用道具 举报

级别:功成名就 Lv.9

注册时间
2019-4-24
最后登录
2020-6-29
听众
15
收听
0
主题
0
蓝光币
560 枚
贡献
0 点
发表于 2019-12-3 08:41:26 | 显示全部楼层
楼主发贴辛苦了,谢谢楼主分享!我觉得中国高清电影网是注册对了!
回复

使用道具 举报

懒得打字嘛,点击右侧快捷回复 【右侧内容,后台自定义】
您需要登录后才可以回帖 登录 | 立即注册

本版积分规则

Archiver|手机版|小黑屋| 中国高清网 ( ICP备17007870号-2 ) |网站地图 

GMT+8, 2020-7-5 07:53 , Processed in 0.165930 second(s), 39 queries .

Powered by HDchina X3.4

Copyright 2017-2019©HDchina.All right reserved

返回顶部 联系我们