查看: 282|回复: 1

[喜剧片] 大搜查之女 Lady.Cop.and.Papa.Crook.2008.MANDARiN.DUBBED.THEATRiCAL.720p.BluRay.x264-REGRET 4.37GB

[复制链接]

 成长值: 5990

级别:资源管理组

注册时间
2017-10-20
最后登录
2020-7-5
听众
1
收听
0
主题
97450
蓝光币
167012 枚
贡献
21715 点
发表于 2019-12-2 20:32:33 | 显示全部楼层 |阅读模式
大搜寻之女 Lady.Cop.and.Papa.Crook.2008.MANDARiN.DUBBED.THEATRiCAL.720p.BluRay.x264-REGRET 4.37GB-1.png + Q6 V: m; X- ~+ N9 t8 A# f, L

* I0 E) T8 Y9 e- T) Y6 D2 }译  名 Lady Cop & Papa Crook / 大搜寻
4 l$ c/ ^. X5 x: O. L片  名 大搜寻之女
8 t# q3 B2 Y/ B+ q2 W年  代 2008: `* _- f, c' d/ Y$ j) X
产  地 中国香港 / 中国大陆
/ J/ F9 `/ [" f; ]类  别 笑剧 / 惊悚 / 犯罪( F1 G7 ~( E( v$ K  B. K! t
语  言 粤语 / 普通话! Z" c3 K: d1 G% N5 O. M: R
上映日期 2008-12-24
% P  ?. a  r3 j8 J8 T* {7 k- ^IMDb评分  5.2/10 from 269 users: s2 v. I  V- ^/ n" o3 u
IMDb链接  https://www.imdb.com/title/tt12581309 W6 Z) ]9 _$ k' ]7 `; |) ~7 ]+ o
豆瓣评分 5.9/10 from 18728 users3 p0 _1 }" e: i: L2 A  v5 z
豆瓣链接 https://movie.douban.com/subject/3136488/  k8 B, ^) |- y$ \1 d
片  长 92分钟
/ H0 F6 p8 Q5 u8 m# W  U2 _) o导  演 麦兆辉 / 庄文强% N2 N: A/ Q% b2 _+ r0 E
编  剧 麦兆辉 / 庄文强' N* K! s* |* I5 Y# h- v
主  演 郑秀文
; a& `" a1 [, e' S       陈奕迅
' p/ b9 a4 W" F' H% A% \       张国立
0 n) |% K2 G$ w       董勇, i6 g' |8 U& u5 q
       杜汶泽
# Z, f0 c$ [8 A  K$ {       叶璇
( r7 H3 y8 B( b! q! t       徐子珊
7 m4 U5 r* e$ P5 W& z9 i+ `; L# Y       刘浩龙
& J# A# y- n- N2 Z" z8 q       任贤齐9 K, w* P4 {& Y' d* {
       陈子聪
. [) H5 |' D( A! ^+ F/ V       黄德斌
1 J: j1 m: J) s( p: }       谭耀文
3 ]% [# o; l: U( n       谷祖琳- x7 ^4 }( t  O
# {8 k) K# ]( G& J, f
; r0 w- t0 z9 C) u
标  签 郑秀文 | 陈奕迅 | 香港电影 | 香港 | 麦兆辉 | 警匪 | 2008 | 电影6 G; H: f+ w) {/ P; v6 r- }

. g4 O* u5 k4 \' F5 @简  介  
. R9 x+ N" V& S, c! l9 A  @* F' p4 A1 U& o3 d6 T+ u( M1 S
  33岁还未成婚的香港女警司徒慕莲(郑秀文饰)一向为自己的亲事忧愁。男友十年前的许诺,现在成了她与同事间的笑谈。一日,走私团体的头目霍青松(陈奕迅饰)的儿子被绑架,司徒慕莲受命处置这宗案件。但霍青松一家为避免因走私之事被警方控诉,处处表示出分歧作的态度,而此时司徒慕莲发现自己有了身孕。
. M( {( I6 H9 n& x) @  黑白两道在一间大屋下貌和神离,霍家高低各自心胸暗计,同时,大陆警方也传来了结合破案的消息。作为“剩女”的司徒慕莲、作为差人的司徒慕莲,她到底能否处理眼前面临的一切?/ E' ?9 K- @, Z! D
  1. Video3 G% X) R7 G  }! p4 k4 [
  2. ID                                       : 14 u% ]. H  n8 c5 }4 b
  3. Format                                   : AVC; A# z+ T/ {: i) I/ `. O6 u. F7 M
  4. Format/Info                              : Advanced Video Codec4 Z% }( E( s1 y5 a
  5. Format profile                           : High@L4# Y' |1 [4 C9 ^4 j5 b( ~" t
  6. Format settings                          : CABAC / 5 Ref Frames
    : g3 X. N" r& f$ ?0 a0 C1 @& V
  7. Format settings, CABAC                   : Yes6 N6 H0 N! |, e7 O* x$ Y
  8. Format settings, Reference frames        : 5 frames
    / k; H6 ?$ J! k; Y2 `+ h
  9. Codec ID                                 : V_MPEG4/ISO/AVC
    * H, H% R  R3 Q% P
  10. Duration                                 : 1 h 31 min% r. i: y0 g$ v/ w  ?3 @' v6 M' \
  11. Bit rate                                 : 6 174 kb/s/ O% g- F7 k: `9 ?' `) g
  12. Width                                    : 1 280 pixels5 p7 Z+ M% @! l- D4 f
  13. Height                                   : 720 pixels! g, v% c( r5 C& M) f4 e2 \
  14. Display aspect ratio                     : 16:9
    / U/ e$ t2 t; B' a& l
  15. Frame rate mode                          : Constant
    2 N7 R" }; J3 p/ g8 N+ V
  16. Frame rate                               : 24.000 FPS
    " C4 P2 ^! ]9 ^6 S, {( ]! }; X; g' U
  17. Color space                              : YUV
    - F( L: p$ ~/ v3 o$ L
  18. Chroma subsampling                       : 4:2:00 P' F8 ]3 d( U) f# B
  19. Bit depth                                : 8 bits4 B# f: c2 V8 d" F6 P
  20. Scan type                                : Progressive
    . `/ t1 t7 i9 E; @- J
  21. Bits/(Pixel*Frame)                       : 0.279
    7 I; a: J2 f& `
  22. Stream size                              : 3.96 GiB (91%)
    ) T" x7 O# {, l1 Q
  23. Writing library                          : x264 core 158 r2988 7817004
    % c: C" l7 {* s  q  x4 p8 o
  24. Encoding settings                        : cabac=1 / ref=5 / deblock=1:-3:-3 / analyse=0x3:0x133 / me=umh / subme=9 / psy=1 / psy_rd=1.00:0.00 / mixed_ref=1 / me_range=16 / chroma_me=1 / trellis=2 / 8x8dct=1 / cqm=0 / deadzone=21,11 / fast_pskip=0 / chroma_qp_offset=-2 / threads=22 / lookahead_threads=1 / sliced_threads=0 / nr=0 / decimate=1 / interlaced=0 / bluray_compat=0 / constrained_intra=0 / bframes=3 / b_pyramid=2 / b_adapt=1 / b_bias=0 / direct=3 / weightb=1 / open_gop=0 / weightp=2 / keyint=240 / keyint_min=24 / scenecut=40 / intra_refresh=0 / rc_lookahead=50 / rc=2pass / mbtree=1 / bitrate=6174 / ratetol=1.0 / qcomp=0.60 / qpmin=0 / qpmax=69 / qpstep=4 / cplxblur=20.0 / qblur=0.5 / ip_ratio=1.40 / aq=1:1.00
    , y% C  P; X% s& R' j/ }
  25. Language                                 : English
    " I8 `1 h& f* s
  26. Default                                  : Yes( Q# C& |3 M0 ], v2 L  K
  27. Forced                                   : No8 R) J; q4 ~) A8 ~4 c8 j
  28. / g0 _3 c6 A' k0 r
  29. Audio
    / }  z& |; u( e4 |# g$ e
  30. ID                                       : 2
    6 X. ^9 C" e' X+ ~, O# M- P# e7 J
  31. Format                                   : AC-3
    6 I8 y! k* X! G
  32. Format/Info                              : Audio Coding 30 ^  l. K: p7 O$ t9 }+ Z  J
  33. Commercial name                          : Dolby Digital
    0 G% }. [2 h/ B# j9 r
  34. Codec ID                                 : A_AC3- ?$ m% Z4 j- {" \. W
  35. Duration                                 : 1 h 31 min
    6 @# [% B4 h& t$ O- w/ \
  36. Bit rate mode                            : Constant
      E, O( m* v  X" y) x$ Q' U5 u
  37. Bit rate                                 : 640 kb/s
    0 \$ Y& u3 k& w0 Y
  38. Channel(s)                               : 6 channels- g: S* K% k; f# G( z5 [+ `
  39. Channel layout                           : L R C LFE Ls Rs5 _* J" \4 `! N9 J- B# f( I
  40. Sampling rate                            : 48.0 kHz
    $ o4 {: j% S' [- e0 Q% v
  41. Frame rate                               : 31.250 FPS (1536 SPF), d$ t: H6 }. |/ V2 o
  42. Bit depth                                : 16 bits
    7 R, }$ u( O) F8 ]: A5 ~
  43. Compression mode                         : Lossy2 G; S: Z8 M( m' u( r
  44. Stream size                              : 420 MiB (9%)% }! `) c/ e! T+ u, k
  45. Language                                 : Chinese  m3 }2 U( L* S2 w5 o
  46. Service kind                             : Complete Main+ l( a  p# F& ^* w# @/ s1 O: k; F
  47. Default                                  : Yes- |- H7 U' Y: B" d6 c
  48. Forced                                   : No
    : |" @& H2 |' X2 {# o) H5 Y3 H
  49. 4 W9 [0 U. j/ V, I: Y- H9 p
  50. Menu* o8 @3 [& ?' N
  51. 00:00:00.000                             : en:00:00:00.000
    7 T; e/ ^" E/ j7 m
  52. 00:06:34.000                             : en:00:06:34.0005 d* }+ q2 u( a" e
  53. 00:11:44.000                             : en:00:11:44.000# N* ]0 H* Z; v9 Z  x8 C
  54. 00:15:12.000                             : en:00:15:12.000
    # s! u7 N3 {* Y
  55. 00:18:30.000                             : en:00:18:30.000& e$ m9 M+ k* g
  56. 00:23:42.000                             : en:00:23:42.000& V9 v+ j9 @9 L3 k& u7 [
  57. 00:26:16.000                             : en:00:26:16.000& S; l  ~& Q8 ]  g+ u' v. `
  58. 00:31:00.000                             : en:00:31:00.000# _$ T. C  w# j# l0 W: p/ p
  59. 00:36:48.000                             : en:00:36:48.000& K. s7 D% e! A: J7 [1 @
  60. 00:40:53.000                             : en:00:40:53.000
    / I4 N5 I. [6 V& x2 k
  61. 00:45:48.000                             : en:00:45:48.0000 k' N; `2 d- {6 P7 J; ]/ A5 z# L
  62. 00:50:18.000                             : en:00:50:18.0000 s: q8 X( l6 S* Y0 K8 I
  63. 00:54:44.000                             : en:00:54:44.000: _1 I9 ~5 w4 s" b* f% {- e
  64. 01:00:49.000                             : en:01:00:49.000$ H6 I- [! R' H* J, M
  65. 01:07:13.000                             : en:01:07:13.000+ \1 C, a* x, e) |9 M  _$ S8 k
  66. 01:11:05.000                             : en:01:11:05.0000 q7 {( ^/ z( n! O0 O: S  g; P+ q
  67. 01:17:30.000                             : en:01:17:30.000
    7 C# b0 V/ U8 ^  O, ?# p3 u" b7 |% u
  68. 01:21:55.000                             : en:01:21:55.0004 m- S4 `  S( u. ?
  69. 01:25:24.000                             : en:01:25:24.000
    ) P2 G) {! n: G9 k: t. N5 A
  70. 01:28:59.000                             : en:01:28:59.000
复制代码

6 q. G2 ^/ O1 W! X& @4 A" o 大搜寻之女 Lady.Cop.and.Papa.Crook.2008.MANDARiN.DUBBED.THEATRiCAL.720p.BluRay.x264-REGRET 4.37GB-1.png # F1 [) y! ~& V* L# R" f& X
* t) B0 K! E$ L# t5 T) B2 Y8 ?! V

2 P0 T' i5 ]! X2 r: ^7 _5 n' B5 v6 A6 ^9 T7 v; H4 u
, O( y( p0 Z5 Q. ?$ {- h8 R

5 |* A1 S  }- T
3 W* T, R3 @( r+ s: [7 c! x9 [' Y; ]' |* M4 u
回复

使用道具 举报

级别:功成名就 Lv.9

注册时间
2019-4-24
最后登录
2020-6-29
听众
15
收听
0
主题
0
蓝光币
560 枚
贡献
0 点
发表于 2019-12-3 08:42:02 | 显示全部楼层
楼主发贴辛苦了,谢谢楼主分享!我觉得中国高清电影网是注册对了!
回复

使用道具 举报

懒得打字嘛,点击右侧快捷回复 【右侧内容,后台自定义】
您需要登录后才可以回帖 登录 | 立即注册

本版积分规则

Archiver|手机版|小黑屋| 中国高清网 ( ICP备17007870号-2 ) |网站地图 

GMT+8, 2020-7-5 09:48 , Processed in 0.193484 second(s), 39 queries .

Powered by HDchina X3.4

Copyright 2017-2019©HDchina.All right reserved

返回顶部 联系我们