查看: 154|回复: 2

[剧情片] 夜莺/夜莺的哭声 The.Nightingale.2018.720p.BluRay.X264-AMIABLE 5.47GB

[复制链接]

 成长值: 5990

级别:资源管理组

注册时间
2017-10-20
最后登录
2020-7-5
听众
1
收听
0
主题
97450
蓝光币
167002 枚
贡献
21715 点
发表于 2019-12-2 20:31:16 | 显示全部楼层 |阅读模式
夜莺/夜莺的哭声 The.Nightingale.2018.720p.BluRay.X264-AMIABLE 5.47GB-1.png ; Q# d" n# c0 x# f3 e

6 C( u* w* V4 ]: e7 C: q译  名 夜莺 / 夜莺的哭声(台) / 夜莺的抽泣
3 O4 p' v5 |8 p8 L: j* ]  k片  名 The Nightingale  l2 E/ m; b; r
年  代 2018
. Y& m0 D+ ^% P$ J* Y) P产  地 澳大利亚 / 加拿大 / 美国
' c" `  K8 P+ b4 ~类  别 剧情 / 惊悚 / 冒险7 }8 z5 q! ?1 a' K' C
语  言 英语
3 ~* y& M$ ]( s0 U6 V上映日期 2018-09-06(威尼斯电影节) / 2019-08-02(美国)- W( A5 w% S( r
IMDb评分  7.3/10 from 1715 users6 e& r8 Z0 m* e  g7 S4 E" V
IMDb链接  https://www.imdb.com/title/tt4068576
( T/ a4 A- @& }  M豆瓣评分 6.0/10 from 89 users
; j% T( R! P7 J豆瓣链接 https://movie.douban.com/subject/26389173/: e5 ?1 g: ]# N' {4 {
片  长 136分钟7 z) l2 y0 R9 }1 h. R1 h
导  演 詹妮弗·肯特 Jennifer Kent/ T! }& A0 R" Z( ~4 a( o$ s8 B5 w% O+ \
编  剧 詹妮弗·肯特 Jennifer Kent" z" [5 t7 \& i
主  演 山姆·克拉弗林 Sam Claflin
' X3 d' E' u% M       艾斯琳·弗兰乔茜 Aisling Franciosi: I7 A* Q4 Z4 `
       达蒙·海瑞曼 Damon Herriman: K& d6 c+ Q2 M) e; R
       伊文·莱斯利 Ewen Leslie4 @  M/ F" `+ e  u+ Q
       查理·肖特韦尔 Charlie Shotwell
6 i& }+ F# q+ T. P       纳撒尼尔·迪安 Nathaniel Dean
1 I6 s4 ]! }7 X/ v( ?! u       哈利·格林伍德 Harry Greenwood: ?* T6 J) Y, a+ H/ E$ ]  C+ z
       马修·桑德兰 Matthew Sunderland
' d, j7 D( F% y% s5 |% M2 [/ @       贝卡利·加纳巴尔 Baykali Ganambarr
5 Y9 `& g4 l0 t       Sam Smith
2 A- }7 p, n! H" l5 J  ^4 ]' Q       Michael Sheasby
; d9 e# u$ {8 e- i+ k! B' I% r

  x, Y( e7 \) Y# k0 j6 s$ j5 c% j标  签 澳大利亚 | 2018 | 剧情 | 澳大利亚电影 | 悬疑 | Sam | 可骇 | 2018威尼斯5 j4 {& k. t( }& G
3 l  _; d4 m2 c# V# g0 s, L. [' P0 E' b
简  介  9 ]6 K9 |( I; L6 y% X

. Z  y. ?! ~: ^" e) O4 F, \6 }+ c" E5 o  影片获得威尼斯电影节评审团出格奖和新锐演员奖。报告1920年月塔斯马尼亚岛的一位21岁爱尔兰犯人克莱尔被判7年徒刑,她很是渴望摆脱凌虐她的仆人霍金斯中尉,尔后者拒绝开释克莱尔。克莱尔的丈夫艾丹停止了报复,而中尉和他的好友们是以对她犯下了可怕的罪行。
' J9 n/ r, [! Z# m6 t( `' G  由于没法从英国政府获得公道的审判,克莱尔决议追捕霍金斯,霍金斯却忽然分开岗位,想获得北部的一个上尉职位。她只能乞助于年轻的土著猎人比利,比利不情愿地率领她穿过坎坷的荒原,去寻觅霍金斯。# m9 E/ A: e4 K) N: g
% l) J% {5 u% X* G, {$ N
获奖情况  1 c4 _1 a8 K7 J2 R: J9 B5 _6 j
( \$ W: l+ @  a+ c. W
  第75届威尼斯电影节(2018)
5 ?: K' C- f  B& g! ~  主比赛单元 金狮奖 (提名) 詹妮弗·肯特4 `  C8 b% ]1 m! ?# Y/ y
  评审团出格奖 詹妮弗·肯特
1 {  N& Z: W* |+ D) H4 f. s  马塞洛·马斯托依安尼奖(新锐演员奖) 贝卡利·加纳巴尔6 `- B0 H- L2 }# Z: K! Z' P
$ a/ }$ w/ j: f3 o) E3 c
  第29届哥谭自力电影奖(2019)
7 ]# m0 r9 z! \" }1 C  年度冲破演员(提名) 艾斯琳·弗兰乔茜
9 m9 K6 z& ?7 n4 Z1 Z' G
  1. Video& [! M! c7 {  D2 O$ E
  2. ID                                       : 1
    % |" D6 {; \4 B
  3. Format                                   : AVC
    5 I7 d# ]# ?# C- p# D* D9 [: D
  4. Format/Info                              : Advanced Video Codec$ m/ L( R# I, Q+ a9 g
  5. Format profile                           : High@L40 ]! T9 N; F  p' N1 o  E+ X0 c. u
  6. Format settings                          : CABAC / 5 Ref Frames" F3 E  ^0 ]# g0 o; w
  7. Format settings, CABAC                   : Yes
    ; [, @: e4 [; T/ C* z, J) N  ]2 r5 Z' t
  8. Format settings, Reference frames        : 5 frames
    0 Y& s+ c% ~8 O1 H7 W
  9. Codec ID                                 : V_MPEG4/ISO/AVC
    " W) x/ E  j) G6 Y# b$ K- E
  10. Duration                                 : 2 h 16 min; c$ S1 X3 E: O0 q* S! ^- {
  11. Bit rate                                 : 4 230 kb/s8 B+ @- p" C9 W
  12. Width                                    : 992 pixels# U: r: E; K* c0 H3 _2 w
  13. Height                                   : 720 pixels
    * }! c+ }! B' \, i0 ?
  14. Display aspect ratio                     : 1.378( Z, Y5 x! B) [) r1 F8 ]7 V
  15. Frame rate mode                          : Constant
    ) m0 l$ f3 s# l: f3 X8 [. k
  16. Frame rate                               : 23.976 (24000/1001) FPS
    " M/ d3 l1 c6 p1 I2 z2 D. i: C" A
  17. Color space                              : YUV- {3 l5 p5 c" o5 A
  18. Chroma subsampling                       : 4:2:0
    ) R, B: g7 V1 L( Y8 N) G
  19. Bit depth                                : 8 bits
    + ~' C7 c) h* U9 U2 L6 b7 j  r& w
  20. Scan type                                : Progressive
    - h$ @& Q) ]3 N
  21. Bits/(Pixel*Frame)                       : 0.247
    . i7 ~. o! c  n' s
  22. Stream size                              : 3.92 GiB (72%); l4 p8 @2 H1 p' g
  23. Writing library                          : x264 core 158 r2988 78170047 ^) \5 f4 Z: c0 N% m
  24. Encoding settings                        : cabac=1 / ref=5 / deblock=1:-3:-3 / analyse=0x3:0x113 / me=umh / subme=8 / psy=1 / psy_rd=1.00:0.00 / mixed_ref=1 / me_range=24 / chroma_me=1 / trellis=2 / 8x8dct=1 / cqm=0 / deadzone=21,11 / fast_pskip=1 / chroma_qp_offset=-2 / threads=22 / lookahead_threads=3 / sliced_threads=0 / nr=0 / decimate=1 / interlaced=0 / bluray_compat=0 / constrained_intra=0 / bframes=3 / b_pyramid=2 / b_adapt=2 / b_bias=0 / direct=3 / weightb=1 / open_gop=0 / weightp=2 / keyint=240 / keyint_min=24 / scenecut=40 / intra_refresh=0 / rc_lookahead=50 / rc=2pass / mbtree=1 / bitrate=4230 / ratetol=1.0 / qcomp=0.60 / qpmin=0 / qpmax=69 / qpstep=4 / cplxblur=20.0 / qblur=0.5 / ip_ratio=1.40 / aq=3:0.70
    4 d- E4 c; {% U9 J  A( a
  25. Default                                  : Yes6 W  K& a! U( J
  26. Forced                                   : No! u7 H) M5 x& |7 r
  27. Statistics Tags Issue                    : no_variable_data 1970-01-01 00:00:00 / no_variable_data 2010-02-22 21:41:29
    9 o. h: Q+ f2 c3 F% ?
  28. FromStats_BitRate                        : 4228327: Y& x+ G# d+ F3 W
  29. FromStats_Duration                       : 02:16:16.293000000
    1 w; J5 f) [" I/ j$ r3 ]  \% g
  30. FromStats_FrameCount                     : 196035
    3 A: V% M% Y9 E7 H: c1 |4 Q$ v' H
  31. FromStats_StreamSize                     : 4321505490: R& P" t+ I$ l) m0 J, ?

  32. , w9 M- [  u4 u0 o/ ~9 G- [3 }! N$ X- F
  33. Audio
    ' s+ a8 g, M4 ?% a6 }0 L4 F
  34. ID                                       : 2
    & ~1 _" u) G% m1 y- n
  35. Format                                   : DTS/ b4 q5 X! K( c. x
  36. Format/Info                              : Digital Theater Systems
    8 y% \6 D6 a6 U# D6 ?
  37. Codec ID                                 : A_DTS# ?7 W/ t- _* h1 S( T/ _
  38. Duration                                 : 2 h 16 min# j* x3 L  R$ |+ H& }4 S
  39. Bit rate mode                            : Constant
    0 ~( G. o  m  s9 g3 b, Z
  40. Bit rate                                 : 1 509 kb/s' `' f) K0 F* j( y
  41. Channel(s)                               : 6 channels
    5 D# L. V& h6 F6 z5 u
  42. Channel layout                           : C L R Ls Rs LFE6 S$ v- B% O2 R; Z  \
  43. Sampling rate                            : 48.0 kHz
    ) Y* U/ n8 H. c* f1 L. R8 U
  44. Frame rate                               : 93.750 FPS (512 SPF)
    0 @1 G7 l7 Z1 ~$ H) i6 A
  45. Bit depth                                : 24 bits: i+ g7 k' ~7 H1 j: _- n
  46. Compression mode                         : Lossy
    / w. n& A# I3 ?
  47. Stream size                              : 1.44 GiB (26%). v8 E0 [7 \5 L; R9 Y2 t
  48. Language                                 : English
    5 r6 \8 M3 I# t) m: A0 o( f6 r
  49. Default                                  : Yes
    ! l- ~* F1 v! u0 h* t, }  \
  50. Forced                                   : No- t* F/ q/ C5 I9 P
  51. Statistics Tags Issue                    : no_variable_data 1970-01-01 00:00:00 / no_variable_data 2010-02-22 21:41:29
    1 c7 L0 C+ J; N2 N; ^
  52. FromStats_BitRate                        : 1509000
    : r: q2 Y6 j8 }# w
  53. FromStats_Duration                       : 02:16:16.288000000
    5 e3 v+ j1 M  N) W, }
  54. FromStats_FrameCount                     : 766527
    5 B$ W2 d7 O9 R! Q/ F6 V7 l
  55. FromStats_StreamSize                     : 1542252324
    1 p! ~+ _; H  a  T7 ?% e
  56. 8 t+ D* h$ N7 v$ B9 I! M
  57. Text #17 q: c: L3 W$ R6 u- R
  58. ID                                       : 3
    ( |; k, [7 j% v) O
  59. Format                                   : UTF-86 @) F. T7 a8 {- i: _7 D
  60. Codec ID                                 : S_TEXT/UTF8  G5 f9 A9 s+ }) x5 U! Y
  61. Codec ID/Info                            : UTF-8 Plain Text
    ) p* w, A% G( a0 }$ g* D9 U/ m
  62. Language                                 : English
    3 W$ v7 s' a: ?
  63. Default                                  : No
      E5 j4 ~  d5 w3 C  ?* q5 D
  64. Forced                                   : No
    ( i2 I6 |! J5 m2 N  `
  65. Statistics Tags Issue                    : no_variable_data 1970-01-01 00:00:00 / no_variable_data 2010-02-22 21:41:29
    1 C% r! E; o; y+ b
  66. FromStats_BitRate                        : 34. r  L* f9 v4 k6 m
  67. FromStats_Duration                       : 02:10:32.825000000
    5 D1 K9 Q% c9 T4 X. `' q7 u' Z
  68. FromStats_FrameCount                     : 1243
    , v/ U% W  s- |) a+ @$ b' c
  69. FromStats_StreamSize                     : 33997
    % h7 i' g8 N4 `% @  g

  70. * N+ d$ ?1 Z! c) ]$ K  }7 z
  71. Text #2
    3 T0 g$ [. `; O! W" h# H
  72. ID                                       : 4
    / F% |- ]2 J2 j1 ^3 r2 E
  73. Format                                   : UTF-8
    4 j, v% u6 R8 W4 E# [8 g# F
  74. Codec ID                                 : S_TEXT/UTF8
    9 u3 m7 P6 \; z$ r- ]" ^7 n$ R
  75. Codec ID/Info                            : UTF-8 Plain Text
    " @: _! i9 P, P; a) q
  76. Title                                    : SDH" l6 _; @  ?0 H' ]! G$ c
  77. Language                                 : English, H/ a! |; B+ R1 p/ D4 \6 F' s
  78. Default                                  : No+ _! \8 D9 O! K# ~
  79. Forced                                   : No( R5 U$ S" [+ J
  80. Statistics Tags Issue                    : no_variable_data 1970-01-01 00:00:00 / no_variable_data 2010-02-22 21:41:29
    9 x; C$ W6 S; h1 K' z( g6 i
  81. FromStats_BitRate                        : 38
    - o& ~* r8 M( S3 V
  82. FromStats_Duration                       : 02:10:50.134000000
    ' S6 _, ]+ X4 h5 x1 d
  83. FromStats_FrameCount                     : 1430
    ; \& z( w0 v) n
  84. FromStats_StreamSize                     : 38060
    ) e( X3 f& a- B
  85. . P4 M4 s( @" x) |# _9 o# @# c
  86. Menu' L  w4 ?1 r9 o+ `9 X+ Y
  87. 00:00:00.000                             : en:Chapter 01
    2 E" U$ k( x: G& n1 ~) s$ _' w0 |$ f
  88. 00:12:59.654                             : en:Chapter 02, G" v; p- m. L" ~3 Z- a+ \4 L8 ~
  89. 00:30:09.891                             : en:Chapter 03
    9 W3 C# X' F* ]( z
  90. 00:43:30.316                             : en:Chapter 045 Z% x9 J8 K" L/ h' F* x: @8 }) Z0 ]
  91. 00:51:30.170                             : en:Chapter 05
    ) v( X% W8 ^. v5 v% b* q
  92. 01:00:02.140                             : en:Chapter 06
    + f" f( m* ~' \, e+ L  v9 _
  93. 01:15:03.874                             : en:Chapter 07
    ( k  V; U/ t) e# L$ [
  94. 01:23:14.323                             : en:Chapter 08
    ) L2 I, B8 R- ?0 m- i) A" \
  95. 01:31:28.274                             : en:Chapter 09
    & ?: I% o7 t; X! X: A/ U
  96. 01:45:19.855                             : en:Chapter 10
    4 P; P- T  s: [1 J7 r8 k6 [/ R; H
  97. 01:58:33.315                             : en:Chapter 11
    $ y: a; ]1 \3 }" H
  98. 02:11:44.271                             : en:Chapter 12
复制代码
7 ^, W: D) p1 p- g- M3 E3 L1 \- K0 ?
夜莺/夜莺的哭声 The.Nightingale.2018.720p.BluRay.X264-AMIABLE 5.47GB-2.png 3 H1 M6 {, v" q
5 f3 c3 ]1 \. W+ x& S& f
& Q0 H" s( A! I% S7 d
6 f3 R- P+ v( S7 @! U) z- P

7 B2 n/ o# _& r, ^. ]2 }
% v7 C/ a7 b# Y' }$ L% K
  Z( @, D4 i' X) C. A  U- x9 ?) u# ]& u8 n0 H0 P9 _
回复

使用道具 举报

级别:功成名就 Lv.9

注册时间
2019-4-24
最后登录
2020-6-29
听众
15
收听
0
主题
0
蓝光币
560 枚
贡献
0 点
发表于 2019-12-3 08:42:34 | 显示全部楼层
楼主发贴辛苦了,谢谢楼主分享!我觉得中国高清电影网是注册对了!
回复

使用道具 举报

级别:普通观众 Lv.2

注册时间
2019-12-2
最后登录
2020-3-17
听众
2
收听
0
主题
0
蓝光币
38 枚
贡献
0 点
发表于 2019-12-6 15:06:46 | 显示全部楼层
谢谢楼主分享
回复

使用道具 举报

懒得打字嘛,点击右侧快捷回复 【右侧内容,后台自定义】
您需要登录后才可以回帖 登录 | 立即注册

本版积分规则

Archiver|手机版|小黑屋| 中国高清网 ( ICP备17007870号-2 ) |网站地图 

GMT+8, 2020-7-5 09:37 , Processed in 0.175527 second(s), 39 queries .

Powered by HDchina X3.4

Copyright 2017-2019©HDchina.All right reserved

返回顶部 联系我们