查看: 256|回复: 5

[惊悚片] 幸运日 Lucky.Day.2019.720p.BluRay.x264-ROVERS 4.38GB

[复制链接]

 成长值: 5500

级别:资源管理组

注册时间
2017-10-20
最后登录
2020-6-1
听众
1
收听
0
主题
96327
蓝光币
153984 枚
贡献
20705 点
发表于 2019-11-30 21:08:24 | 显示全部楼层 |阅读模式
荣幸日 Lucky.Day.2019.720p.BluRay.x264-ROVERS 4.38GB-1.png
  P( D4 l6 ], E7 ~3 ]. F8 r2 [  H! z/ a$ ]
◎译  名 荣幸日
/ ^  U8 I# T8 j" D9 o/ ^+ k6 D9 p◎片  名 Lucky Day' T; k+ o5 C. d; Q, b9 D
◎年  代 2018* x4 V# F) @/ P
◎产  地 加拿大 / 法国. m. p9 j3 r- A+ z
◎类  别 惊悚
1 f3 ?! Z" S, e+ r6 x& L◎语  言 英语 / 法语! O  W6 B# g% G, A/ `( @8 \7 Z2 y$ M! ?
◎IMDb评分 6.6/10 from 69 users
3 K/ T5 P) g* y◎IMDb链接 http://www.imdb.com/title/tt7248248& z0 Y6 W. x9 A" M6 u
◎豆瓣评分 0/10 from 0 users; V: w  [$ p4 r6 h" H7 `9 ?/ d
◎豆瓣链接 https://movie.douban.com/subject/27150264// g, [# r6 s  J! g) ]2 Q2 r
◎导  演 罗杰·阿夫瑞 Roger Avary
+ Z  o1 O8 a0 d◎编  剧 罗杰·阿夫瑞 Roger Avary! j5 d& D5 x" u( H5 M4 C- ]
◎主  演 妮娜·杜波夫 Nina Dobrev  L$ U: Y* m0 D& h; X
      克里斯平·格洛弗 Crispin Glover7 W, |4 ?( D2 x2 ?/ \
      卢克·布雷西 Luke Bracey6 F- L; f" e. V+ L
      小克利夫顿·克林斯 Clifton Collins Jr.
/ X8 o- ?/ x0 N  y, S      科勒·班尼特 Clé Bennett' O  E' n" D7 K" n
      大卫·休莱特 David Hewlett
! ~$ a$ K) \8 _$ T% r- B6 Z      马克·达卡斯考斯 Mark Dacascos
" v3 e4 c5 o% B9 H      罗伯托·坎帕内利亚 Roberto Campanella1 z. \4 Z1 g- D- v7 h; z( r3 D
      托莫·希思黎 Tomer Sisley
% ?8 H; `* s# D& M8 H; z. p* h; Q      娜迪亚·法尔丝 Nadia Farès- l% G. V# f4 }% Z
      何超仪 Josie Ho
! J/ p2 \) h1 y6 a* [      Darrin Baker# ?" W2 `6 ^5 y
5 r( E/ k4 E7 p" z# f# c; c

, @' A7 Q6 U- b* ~9 P: v◎标  签 法国电影 | 可骇 | 音 | 电影 | 搞笑 | 行动 | Nina
& l1 V* N2 W: U- F" r, z
/ @/ H" R! o) _9 t◎简  介 9 u$ z( m) B, D5 q& c
" E, m: t' y# i
  故事聚焦一位有前科者,他被克里斯平·格洛弗饰演的变态杀手所追踪。0 {# [, t# B/ c1 G* k) R
  1. Video0 }: c7 p! y$ k2 H
  2. ID : 15 [, \; J! H6 d8 H& M# b
  3. Format : AVC7 z; L# j4 W- b' @4 F
  4. Format/Info : Advanced Video Codec. m6 y- N" I6 I+ r
  5. Format profile : [email]High@L4.1[/email]
    6 p% U& i5 _* k: `, @: M5 i, H
  6. Format settings : CABAC / 5 Ref Frames$ g: v5 P2 b1 X0 N
  7. Format settings, CABAC : Yes
    6 A: Q" V$ T# y$ a7 E
  8. Format settings, Reference frames : 5 frames
    / ^3 o, u, Y* ~3 D
  9. Codec ID : V_MPEG4/ISO/AVC8 Z1 X0 M' C  j! k) i
  10. Duration : 1 h 39 min
    + G3 ~* }0 n& O& [/ E
  11. Bit rate : 4 794 kb/s0 U+ j2 Q/ f  `6 e' K6 X
  12. Width : 1 280 pixels$ c* K% {" ]6 w* j8 O
  13. Height : 536 pixels
    " h2 \4 P# B$ q8 [0 Q
  14. Display aspect ratio : 2.40:1
    $ Y2 V: u% c9 U# \6 c
  15. Frame rate mode : Constant$ W# |4 ~; @  N3 }/ \6 }
  16. Frame rate : 23.976 (24000/1001) FPS) F$ B8 v, X  J9 x2 E$ Q" a, f
  17. Color space : YUV! m% ^4 j9 J. @7 Q2 N- m
  18. Chroma subsampling : 4:2:0' W' Q  r0 T9 _7 T$ ?* O
  19. Bit depth : 8 bits4 c/ @* v* n0 p- b
  20. Scan type : Progressive6 j0 o( G9 n/ Y% o# \
  21. Bits/(Pixel*Frame) : 0.291" }" ], p9 {. O! D
  22. Stream size : 3.32 GiB (76%)
    9 C3 m2 N$ ?* i& e: H
  23. Writing library : x264 core 158 r2988 78170043 Z; T* y% e/ j+ J, V
  24. Encoding settings : cabac=1 / ref=5 / deblock=1:-3:-3 / analyse=0x3:0x113 / me=umh / subme=8 / psy=1 / psy_rd=1.00:0.00 / mixed_ref=1 / me_range=16 / chroma_me=1 / trellis=1 / 8x8dct=1 / cqm=0 / deadzone=21,11 / fast_pskip=1 / chroma_qp_offset=-2 / threads=17 / lookahead_threads=2 / sliced_threads=0 / nr=0 / decimate=1 / interlaced=0 / bluray_compat=0 / constrained_intra=0 / bframes=3 / b_pyramid=2 / b_adapt=1 / b_bias=0 / direct=3 / weightb=1 / open_gop=0 / weightp=2 / keyint=250 / keyint_min=23 / scenecut=40 / intra_refresh=0 / rc_lookahead=50 / rc=2pass / mbtree=1 / bitrate=4794 / ratetol=1.0 / qcomp=0.60 / qpmin=0 / qpmax=69 / qpstep=4 / cplxblur=20.0 / qblur=0.5 / ip_ratio=1.40 / aq=1:1.00* {/ \1 @$ w, \# i! |) h# `+ c
  25. Language : English
    , p! a' g, b1 b6 t( [
  26. Default : Yes6 n: n6 t0 X: [# g
  27. Forced : No
    * u* V8 \6 y! B* p; K( o% h
  28. & U/ E# H/ M- g5 ^) A9 b/ U# H& W
  29. Audio5 ^  I# `7 W3 s
  30. ID : 2
    5 f$ C: z, L; E" F1 g' Y, ]" G
  31. Format : DTS6 @8 {0 x( Q' E
  32. Format/Info : Digital Theater Systems
    & W# ?2 {( ~! X
  33. Codec ID : A_DTS* H1 l- @( }5 X- [: R' G
  34. Duration : 1 h 39 min
    3 O3 L7 s$ b! i1 O" n; ]4 g5 U, [- p
  35. Bit rate mode : Constant  o) d% e% ^1 B7 P; K
  36. Bit rate : 1 509 kb/s
    % U4 z+ B* ~3 h& _
  37. Channel(s) : 6 channels% ]$ a* F% |" n9 a2 U5 n' @1 C: u2 a
  38. Channel layout : C L R Ls Rs LFE
    9 T  L2 z5 u# r% M: s
  39. Sampling rate : 48.0 kHz
    - d0 Y! |) W% c1 F
  40. Frame rate : 93.750 FPS (512 SPF)
    : L# p! ~" |: ^( y3 E8 X# \2 x
  41. Bit depth : 24 bits6 T; w4 v% s9 ]: J: B
  42. Compression mode : Lossy
    ' N$ P% L8 H" K. n  E1 H
  43. Stream size : 1.05 GiB (24%)
    6 O8 w! d1 A9 L6 V3 K1 b3 h& X
  44. Language : English
    $ d8 s2 A4 v$ g$ z
  45. Default : Yes; S/ @9 C+ ]: U' a9 y$ ?! \! F
  46. Forced : No
    1 G7 ?1 E8 u+ k7 M, I  b
  47. 4 z! C/ P, i0 a' N9 q3 j
  48. Menu8 \; l: S* r/ W9 X2 l
  49. 00:00:00.000 : en:00:00:00.000" k; R* O# s( V; w3 R
  50. 00:06:02.070 : en:00:06:02.0708 X  l8 H" h5 t0 v/ m3 r5 o
  51. 00:10:49.649 : en:00:10:49.649
    3 Q% |4 O& L1 e, h* ^. a& G
  52. 00:18:16.846 : en:00:18:16.8469 S% |: E4 g1 z& r/ ^" ~
  53. 00:23:41.837 : en:00:23:41.837
      B$ B. i; L% J  f
  54. 00:30:44.551 : en:00:30:44.551
    5 Z2 _0 Q, p. ^( u
  55. 00:37:38.131 : en:00:37:38.131
    2 p- I  ]  C% Z7 u/ A0 T7 i
  56. 00:43:59.554 : en:00:43:59.554! V) Q6 X( D" Q5 h
  57. 00:48:35.412 : en:00:48:35.412
    ; l) ?) g* q; @; l+ {5 d# }
  58. 00:53:35.337 : en:00:53:35.3377 n2 e3 I3 v3 z9 z( z& S
  59. 01:00:05.519 : en:01:00:05.519) D8 V# z) t2 h( ~  K
  60. 01:07:10.443 : en:01:07:10.443$ p' z/ u% c& Z. O* j( d6 F$ d
  61. 01:11:08.222 : en:01:11:08.222
    * f, U8 Y: I) a& j/ O
  62. 01:17:25.140 : en:01:17:25.140/ @: R9 T1 `: B; }0 K
  63. 01:24:48.583 : en:01:24:48.5832 y+ O$ h. T( O- Q  L# k
  64. 01:29:50.594 : en:01:29:50.594
复制代码
9 l; y" ?) F3 D
荣幸日 Lucky.Day.2019.720p.BluRay.x264-ROVERS 4.38GB-2.png ! i3 d1 q% P( H. u
& X) w( O2 |  P* b
- h, o4 R% O4 B7 [

( |. o0 k% ?+ y8 A3 ]8 k- @. _
2 O2 P9 d- b9 Q# ^6 ~* l# f
- ~+ a2 Z) {* V! p; {* [9 ]; g
回复

使用道具 举报

级别:荣升主角 Lv.5

注册时间
2019-10-27
最后登录
2020-6-1
听众
1
收听
0
主题
0
蓝光币
516 枚
贡献
0 点
发表于 2019-11-30 22:08:07 | 显示全部楼层
楼主发贴辛苦了,谢谢楼主分享!我觉得中国高清电影网是注册对了!
回复

使用道具 举报

级别:普通观众 Lv.2

注册时间
2019-3-31
最后登录
2020-4-6
听众
8
收听
0
主题
0
蓝光币
55 枚
贡献
0 点
发表于 2019-11-30 23:42:45 | 显示全部楼层
看起来不错,谢谢发布。
回复

使用道具 举报

级别:领衔主演 Lv.6

注册时间
2018-2-26
最后登录
2020-5-28
听众
17
收听
0
主题
0
蓝光币
276 枚
贡献
0 点
发表于 2019-12-2 11:32:38 | 显示全部楼层
5 x" A% g& A' L# ^# M
这个帖子不回对不起自己!我想我是一天也不能离开中国高清电影网
回复

使用道具 举报

级别:初级观众 Lv.1

注册时间
2019-12-2
最后登录
2020-3-4
听众
1
收听
0
主题
0
蓝光币
0 枚
贡献
0 点
发表于 2019-12-2 14:29:00 | 显示全部楼层
提示: 该帖被管理员或版主屏蔽
回复

使用道具 举报

级别:功成名就 Lv.9

注册时间
2019-4-24
最后登录
2020-6-1
听众
14
收听
0
主题
0
蓝光币
540 枚
贡献
0 点
发表于 2019-12-3 08:43:09 | 显示全部楼层
楼主发贴辛苦了,谢谢楼主分享!我觉得中国高清电影网是注册对了!
回复

使用道具 举报

懒得打字嘛,点击右侧快捷回复 【右侧内容,后台自定义】
您需要登录后才可以回帖 登录 | 立即注册

本版积分规则

Archiver|手机版|小黑屋| 中国高清网 ( ICP备17007870号-2 ) |网站地图 

GMT+8, 2020-6-1 21:37 , Processed in 0.156444 second(s), 38 queries .

Powered by HDchina X3.4

Copyright 2017-2019©HDchina.All right reserved

返回顶部 联系我们