查看: 586|回复: 11

[剧情片] 寄生虫 Parasite.2019.KOREAN.720p.BluRay.x264.DTS-FGT 6.47GB

[复制链接]

 成长值: 5500

级别:资源管理组

注册时间
2017-10-20
最后登录
2020-6-1
听众
1
收听
0
主题
96327
蓝光币
153962 枚
贡献
20705 点
发表于 2019-11-30 15:45:39 | 显示全部楼层 |阅读模式
寄生虫 Parasite.2019.KOREAN.720p.BluRay.x264.DTS-FGT 6.47GB-1.png
7 o: n. B2 G0 v! u$ l8 \" @" A, W, P* X) O
译  名 寄生虫 / Gisaengchung / Parasite / 上流寄生族(港) / 寄生上流(台) / ?????! d1 G+ O' ]6 I# A& k9 T
片  名 ???% \3 ~1 f" @% D5 E' t4 R2 S/ _9 ^
年  代 2019
" N" o( h, ~0 L7 s" J2 L$ P& ?产  地 韩国6 O7 ^4 T! m5 G  W1 J
类  别 剧情/ @( ~% a9 S( F" i3 \2 I
语  言 韩语
# t2 `& y6 d* \7 t上映日期 2019-05-21(戛纳电影节) / 2019-05-30(韩国)
& c) c% W5 d: N5 _, M+ kIMDb评分  8.6/10 from 10105 users+ B( s" A% P/ y- @: j7 K0 C5 f
IMDb链接  http://www.imdb.com/title/tt6751668: T+ \8 i9 Y* u/ e1 x3 X3 x9 S5 [# l
豆瓣评分 8.9/10 from 177472 users" @9 w5 d( X( X. o' t) Q
豆瓣链接 https://movie.douban.com/subject/27010768/
$ W" R) O. d! U0 C  M0 y4 y" \片  长 132分钟
& ^1 u- C! v; ^导  演 奉俊昊 Joon-ho Bong% S7 ?! g( Y) ^& t, g: W
编  剧 奉俊昊 Joon-ho Bong
6 I) G- j' a! L主  演 宋康昊 Kang-ho Song) e$ ]; K+ G% O7 o& L% P# V
       李善均 Seon-gyun Lee
. u/ n( }4 s# j. R       赵汝贞 Yeo-Jeong Jo# g+ \7 Y! k' [8 E. i; ^& g
       崔宇植 Woo-Sik Choi
! r1 P) J2 S2 h+ x# x' w  _       朴实丹 Su-dam Park
, r% L  f% F. T/ i7 F
* W, `3 d) Y1 `# G$ U$ U% h6 W* Y9 r: D$ U0 P+ O* k
标  签 韩国 | 人性 | 剧情 | 社会 | 2019 | 黑色诙谐 | 戛纳 | 金棕榈/ m* e( B+ `. g: j
+ G" o( _- }$ ]  b/ A; ^1 ]2 ?7 P
简  介  / }% g9 T) n. H) N7 b
, D* U% |- J- S: s% b% }3 i
  《寄生虫》报告了发生在身份职位悬殊的两个家庭身上的故事:宋康昊饰演的无业游民父亲基泽,让依靠了家人生存希望的大儿子(崔宇植 饰)前往IT公司老总朴社长(李善均 饰)家招聘课外教师,随之发生了连续串意外事务。& f7 U" r6 [) M' m- ^* a4 |3 p
# o( b1 N( M% M" ~  H3 o0 X
获奖情况  
; x" \4 @5 X; \$ C& E0 U# K1 z7 n) |, b# r. Z# r, e' H
  第72届戛纳电影节(2019)
" Q0 x7 B! J9 c1 M" s% q+ J$ t5 @  主比赛单元 金棕榈奖 奉俊昊: ?4 n# c  p' g! l8 w4 r: E
  1. Video
    " h% o3 ^0 ?% l4 y
  2. ID                                       : 1
    5 [) l  v$ t% m* _  h
  3. Format                                   : AVC: B, ?2 L/ a. f. `
  4. Format/Info                              : Advanced Video Codec
    5 `/ I5 l5 K7 G* @! r
  5. Format profile                           : High@L4! P. {1 H( i  b( I7 I- o: P, M
  6. Format settings                          : CABAC / 4 Ref Frames
    - R+ r3 a4 a& U6 z2 J) x# u9 m4 R
  7. Format settings, CABAC                   : Yes5 b- k- d$ A' \# o. X! J
  8. Format settings, Reference frames        : 4 frames
    2 S9 S9 f9 y7 C* A% I5 ]
  9. Codec ID                                 : V_MPEG4/ISO/AVC  Q3 r: }* \6 l1 ?
  10. Duration                                 : 2 h 12 min7 n# q! D' M# y  ], B; Y
  11. Bit rate                                 : 5 500 kb/s
    ( h9 v% y" a( w3 J8 H7 Q2 X
  12. Width                                    : 1 280 pixels
    . o  j" p9 Z% N5 C& T+ x. x
  13. Height                                   : 536 pixels* q& l6 X5 u5 K' C
  14. Display aspect ratio                     : 2.40:1
    4 L) s* h0 [( K* |( W
  15. Frame rate mode                          : Constant) j2 Y. h1 ]! n. S5 h" R
  16. Frame rate                               : 23.976 (24000/1001) FPS1 ~8 g( ^# ?+ B2 h( R, {9 [, a
  17. Color space                              : YUV
    % f+ T/ y2 t/ U1 f2 ]
  18. Chroma subsampling                       : 4:2:0
    3 _) C7 z7 V% W8 ]9 q+ c: \/ r8 C
  19. Bit depth                                : 8 bits
    " e' [! c1 M% {
  20. Scan type                                : Progressive7 {/ W) u* Y: n" c! I
  21. Bits/(Pixel*Frame)                       : 0.334) ]+ Y& D& I3 c( s* o! ^+ v' }/ c
  22. Stream size                              : 5.07 GiB (78%)
    7 W( `& n/ N% J; J6 K- u
  23. Title                                    : Parasite.2019.KOREAN.720p.BluRay.x264.DTS-FGT
    : V4 y" Q# B" T; @  ^5 i
  24. Writing library                          : x264 core 148 r2795M aaa9aa8
    ' Y# y  B1 l& w0 f6 C+ l3 h  H! K
  25. Encoding settings                        : cabac=1 / ref=4 / deblock=1:-2:-2 / analyse=0x3:0x113 / me=umh / subme=9 / psy=1 / psy_rd=1.00:0.15 / mixed_ref=1 / me_range=16 / chroma_me=1 / trellis=2 / 8x8dct=1 / cqm=0 / deadzone=21,11 / fast_pskip=1 / chroma_qp_offset=-3 / threads=72 / lookahead_threads=3 / sliced_threads=0 / nr=0 / decimate=1 / interlaced=0 / bluray_compat=0 / constrained_intra=0 / bframes=3 / b_pyramid=2 / b_adapt=1 / b_bias=0 / direct=3 / weightb=1 / open_gop=0 / weightp=2 / keyint=250 / keyint_min=25 / scenecut=40 / intra_refresh=0 / rc_lookahead=50 / rc=2pass / mbtree=1 / bitrate=5500 / ratetol=1.0 / qcomp=0.60 / qpmin=0 / qpmax=69 / qpstep=4 / cplxblur=20.0 / qblur=0.5 / vbv_maxrate=31250 / vbv_bufsize=31250 / nal_hrd=none / filler=0 / ip_ratio=1.40 / aq=1:1.00
    ( A6 o$ V" a+ Y6 _
  26. Language                                 : Korean
    2 c% K9 m$ l- ]0 |* ^
  27. Default                                  : Yes
      s* m3 R% ]7 D/ c. |9 f& h
  28. Forced                                   : No7 `& C% C5 ?% L3 ]4 B8 q3 `% V

  29. 9 k+ |/ v4 I, V1 g& n# @* P
  30. Audio3 Z5 J7 d! T9 `/ I! b
  31. ID                                       : 2
    0 {- m) t! c! G4 i$ P0 I/ _! F
  32. Format                                   : DTS# h2 b! |. @9 N8 Z& D8 @
  33. Format/Info                              : Digital Theater Systems
    ! e/ v/ m) _% X* j5 W3 h
  34. Codec ID                                 : A_DTS
    / i2 F' O7 c) h* p, _
  35. Duration                                 : 2 h 12 min
    & b1 S! N: T) C7 I1 _
  36. Bit rate mode                            : Constant
    6 I& I3 L" E2 p- f
  37. Bit rate                                 : 1 509 kb/s7 Y0 G" T: {, |; e+ `
  38. Channel(s)                               : 6 channels
    : L, D$ e  U1 Z: Z8 M, i+ Q
  39. Channel layout                           : C L R Ls Rs LFE
    ) w* _0 O+ F3 `0 a5 U, U
  40. Sampling rate                            : 48.0 kHz
    3 x: K) D( @& K# z1 ?- G6 w
  41. Frame rate                               : 93.750 FPS (512 SPF)
    1 P; r* r+ D% R, A
  42. Bit depth                                : 24 bits
    % H9 Z' d0 M8 E
  43. Compression mode                         : Lossy
    3 e- |8 R) s6 ?! M5 m
  44. Stream size                              : 1.39 GiB (22%)+ B5 y& R; X0 H2 Y$ h, S6 U8 R
  45. Title                                    : Parasite.2019.KOREAN.720p.BluRay.x264.DTS-FGT
    , `- ?3 w5 K' x1 y2 n
  46. Language                                 : Korean$ Y( V/ e/ r6 ?2 v% i& l5 x' H
  47. Default                                  : Yes
    & d8 y9 m) S- [
  48. Forced                                   : No
    9 F6 {) ]6 Q! R. M# M/ s

  49. 1 g; E$ V) Y9 Q7 F3 x- d
  50. Text
    5 B. q- m, m: A2 |" M" V
  51. ID                                       : 37 S4 X, x3 K7 B5 s7 p1 j9 M
  52. Format                                   : UTF-8
    3 {/ g' d  K+ @; ^' g
  53. Codec ID                                 : S_TEXT/UTF8! O, s) m* w" C' I1 n- Z
  54. Codec ID/Info                            : UTF-8 Plain Text
    ; W1 E" U6 {$ k# B
  55. Duration                                 : 2 h 5 min
    ' e. y' E4 [9 e' D4 B9 U3 y. Q
  56. Bit rate                                 : 53 b/s) {+ g2 B* p" \% J( W. K. X
  57. Count of elements                        : 1647
    ' B4 |. m! u4 r
  58. Stream size                              : 49.3 KiB (0%)
    & S9 R' p: e6 i% Z5 s
  59. Language                                 : English$ ~( B% [% F, e6 n9 Z  l( F) y
  60. Default                                  : Yes
    ( f2 }, _2 W" A& h. F! f' \
  61. Forced                                   : No
    6 J+ l0 r  S: r( F0 c8 w

  62. . A/ E, g  h& K6 O3 x
  63. Menu
    * z% `- V! w2 l7 {5 j. Y
  64. 00:00:00.000                             : en:Chapter 1
    ' _+ u/ {4 u4 U+ y; @
  65. 00:05:44.802                             : en:Chapter 2
    ; n- u6 c7 T4 x( ?
  66. 00:12:16.610                             : en:Chapter 3, b& j( l* n; P8 T
  67. 00:20:35.484                             : en:Chapter 4
    * n8 C9 ?/ x  C! h
  68. 00:29:21.926                             : en:Chapter 5
    , j' n7 _- o/ q$ ]7 Z0 [/ H& y) ~
  69. 00:37:05.348                             : en:Chapter 6  }6 W3 ^. F9 H. ~: ?- U
  70. 00:46:19.943                             : en:Chapter 7( Q4 l' E! ?$ n, [/ V7 U9 @
  71. 00:53:52.979                             : en:Chapter 8: v" w8 T+ P( g; B- x
  72. 01:02:55.646                             : en:Chapter 93 U/ V' k1 B7 \$ U6 S
  73. 01:12:10.242                             : en:Chapter 10" ^$ ]9 z  Y' m# L
  74. 01:23:25.834                             : en:Chapter 11
    , K0 {  N1 N3 K6 }* l2 K
  75. 01:32:19.659                             : en:Chapter 12# f( S+ R6 k+ n
  76. 01:41:22.284                             : en:Chapter 13+ s: [9 R5 Z* z2 A: G: W9 ^, e
  77. 01:48:21.912                             : en:Chapter 14- G0 ^; K$ Y; a& C* j0 Z8 F  M% r
  78. 01:56:07.502                             : en:Chapter 15
    3 x4 M+ @" k% U8 Z5 M
  79. 02:07:06.744                             : en:Chapter 16
复制代码
' d3 w; l% l# s4 k3 ~% f
寄生虫 Parasite.2019.KOREAN.720p.BluRay.x264.DTS-FGT 6.47GB-2.png 寄生虫 Parasite.2019.KOREAN.720p.BluRay.x264.DTS-FGT 6.47GB-3.png 寄生虫 Parasite.2019.KOREAN.720p.BluRay.x264.DTS-FGT 6.47GB-4.png
. K3 e0 h; l! b/ Y! \7 W. B" d8 d  F5 T: B: e% o( h

! _0 h+ |6 A/ t, t
4 @: N8 J4 [4 L  n  |" l6 _% W9 t6 Z2 D: r0 e6 t+ W

% B0 ~7 o6 S) Y( V6 u# Q
3 h  T0 V/ r9 m  ^- V8 B1 n6 ^3 a. d5 d4 ?
本帖隐藏的下载地址需要VIP会员才可阅读,您需要升级才可阅读,点击这里升级VIP; f% ^& L/ g1 u+ W. h
回复

使用道具 举报

级别:普通观众 Lv.2

注册时间
2019-11-22
最后登录
2019-12-21
听众
1
收听
0
主题
0
蓝光币
14 枚
贡献
0 点
发表于 2019-11-30 17:29:56 | 显示全部楼层
谢谢楼主分享
回复

使用道具 举报

级别:初级观众 Lv.1

注册时间
2019-11-22
最后登录
2019-12-1
听众
0
收听
0
主题
0
蓝光币
4 枚
贡献
0 点
发表于 2019-12-1 21:28:11 | 显示全部楼层
楼主发贴辛苦了,谢谢楼主分享!我觉得中国高清电影网是注册对了!
回复

使用道具 举报

级别:荣升主角 Lv.5

注册时间
2019-4-11
最后登录
2020-6-1
听众
14
收听
0
主题
0
蓝光币
277 枚
贡献
0 点
发表于 2019-12-2 08:44:42 | 显示全部楼层
" y5 M! c0 d9 F# @1 {+ h2 o
这个帖子不回对不起自己!我想我是一天也不能离开中国高清电影网
回复

使用道具 举报

级别:群众演员 Lv.3

注册时间
2019-11-29
最后登录
2020-5-24
听众
1
收听
0
主题
0
蓝光币
1 枚
贡献
0 点
发表于 2019-12-2 19:47:16 | 显示全部楼层
楼主发贴辛苦了,谢谢楼主分享!我觉得中国高清电影网是注册对了!
回复

使用道具 举报

级别:功成名就 Lv.9

注册时间
2019-4-24
最后登录
2020-6-1
听众
14
收听
0
主题
0
蓝光币
540 枚
贡献
0 点
发表于 2019-12-3 08:43:39 | 显示全部楼层
楼主发贴辛苦了,谢谢楼主分享!我觉得中国高清电影网是注册对了!
回复

使用道具 举报

级别:普通观众 Lv.2

注册时间
2019-1-18
最后登录
2020-2-10
听众
10
收听
0
主题
0
蓝光币
52 枚
贡献
0 点
发表于 2019-12-4 23:12:57 | 显示全部楼层
5 ?9 p6 B/ h; P$ p0 g
这东西我收了!谢谢楼主!中国高清电影网真好!
回复

使用道具 举报

级别:初级观众 Lv.1

注册时间
2019-12-6
最后登录
2019-12-6
听众
1
收听
0
主题
0
蓝光币
4 枚
贡献
0 点
发表于 2019-12-6 16:33:38 | 显示全部楼层
多谢分享字幕!
回复

使用道具 举报

级别:群众演员 Lv.3

注册时间
2020-2-2
最后登录
2020-5-31
听众
3
收听
0
主题
0
蓝光币
180 枚
贡献
0 点
QQ
发表于 2020-2-2 12:56:52 | 显示全部楼层

% U: ^7 j" {" k( V0 X  |/ w楼主太厉害了!楼主,电影应该很好看我觉得中国高清电影网真是个好地方!
回复

使用道具 举报

级别:初级观众 Lv.1

注册时间
2020-2-10
最后登录
2020-2-10
听众
1
收听
0
主题
0
蓝光币
4 枚
贡献
0 点
发表于 2020-2-10 22:22:52 | 显示全部楼层
奥斯卡最佳影片,赶紧看一下
: ~. p0 r/ G  e8 W2 R+ s1 a5 B
回复

使用道具 举报

懒得打字嘛,点击右侧快捷回复 【右侧内容,后台自定义】
您需要登录后才可以回帖 登录 | 立即注册

本版积分规则

Archiver|手机版|小黑屋| 中国高清网 ( ICP备17007870号-2 ) |网站地图 

GMT+8, 2020-6-1 20:33 , Processed in 0.194344 second(s), 39 queries .

Powered by HDchina X3.4

Copyright 2017-2019©HDchina.All right reserved

返回顶部 联系我们