查看: 173|回复: 9

[剧情片] 舞女大盗 Hustlers.2019.720p.BluRay.x264-AAA 4.37GB

[复制链接]

 成长值: 5500

级别:资源管理组

注册时间
2017-10-20
最后登录
2020-6-1
听众
1
收听
0
主题
96327
蓝光币
153984 枚
贡献
20705 点
发表于 2019-11-30 14:52:00 | 显示全部楼层 |阅读模式
舞女大盗 Hustlers.2019.720p.BluRay.x264-AAA 4.37GB-1.png
* |# N0 I: _9 b$ q& v, L6 [
3 a7 u, |; C+ F, c6 d$ n. q译  名 舞女大盗 / The Hustlers at Scores / 拉客 / 皮条客 / 舞娘骗很大(台)
# ^" h8 q( [+ r% ]5 K片  名 Hustlers$ X9 X) h- h$ I+ L' h/ j4 D( E8 u
年  代 20190 q7 f7 T7 ?! l% F) u8 t
产  地 美国
& K7 G2 m4 x- m3 z类  别 剧情 / 笑剧 / 犯罪
( n3 ^. U3 w. O& E% n语  言 英语
& r/ w0 G6 |1 f1 a! `2 L上映日期 2019-09-07(多伦多电影节) / 2019-09-13(美国)1 E0 k& H7 ~' U3 F
IMDb评分  6.6/10 from 19637 users
: ^6 F) y$ D7 i& ^, V; ~6 f1 HIMDb链接  https://www.imdb.com/title/tt5503686
5 f9 N; @: F- @- }/ n6 b4 `& o豆瓣评分 6.8/10 from 1225 users
5 y" i$ ~# a7 Q0 c4 y5 l1 U豆瓣链接 https://movie.douban.com/subject/30294313/$ @9 S* |, f( {4 W
片  长 107分钟% \* n, Q1 Z, b% t9 Q$ l- R# r0 K
导  演 劳伦·斯卡法莉娅 Lorene Scafaria7 w6 s7 y  h9 a: V, z1 [/ u7 q& s' N
编  剧 劳伦·斯卡法莉娅 Lorene Scafaria
* p7 J, P& v, d主  演 吴恬敏 Constance Wu+ Z! O' g. S( V. J/ c! C5 _( g
       詹妮弗·洛佩兹 Jennifer Lopez  B: I: M8 ?4 [" o1 ~" d, E6 M
       朱丽娅·斯蒂尔斯 Julia Stiles
! D  C: Y5 x5 c2 J2 {0 a       柯柯·帕尔莫 Keke Palmer7 c% w/ ^9 d" U7 @
       丽丽·莱因哈特 Lili Reinhart
% T2 ?8 Y3 O: l       莉佐 Lizzo
& R, p% w9 g: ?5 I) q- H* T       卡迪·B Cardi B
1 g( c% ^: ]" y4 V0 J1 _: r       玛德琳·布鲁尔 Madeline Brewer
8 Y; ~1 ]. d# l: t       弗兰克·威利 Frank Whaley
9 p! k- o, [6 O- q/ n6 z       艾玛·巴蒂兹 Emma Batiz- L) x* a8 q' t% B  H
       梅特·托利 Mette Towley
% S( i( k) _# m4 h5 o1 Z$ d       何伟清 Wai Ching Ho: f( I4 Z" Q  ?+ `; h
       瓦妮莎·阿斯皮利亚加 Vanessa Aspillaga
# D8 L/ M- v' ~9 ^0 B       梅塞迪丝·鲁尔 Mercedes Ruehl! ~  i% s; x3 ~0 [: x9 G) ^# r
       布兰即位纳 Brandon Keener" J! [* s5 z; b. i1 b# }6 f
       戴文·雷特瑞 Devin Ratray% R  i, o9 p( t# T0 l$ L8 x8 z  j
       亚瑟·雷蒙德 Usher Raymond
" X5 x, Q3 F- k  ?3 D       亚历克斯·布鲁 Alex Breaux
5 s5 N+ h8 Y6 S2 h       乔·格拉瑟 Jon Glaser; H: }5 u2 W( V& F4 Q8 l
       瑞斯·考罗 Rhys Coiro9 A5 X5 Q8 D9 m/ }+ e# H
       艾德·赫伯斯特曼 Ed Herbstman
. L+ _) i6 D6 z5 Y) t+ J: F) Y       乔治娅·希梅内斯·里弗谢 Georgia Ximenes Lifsher& ~* b2 a( w/ Y0 H( V
       斯图米·玛雅 Stormi Maya
0 I2 |8 ^% y  ?( @       史蒂文·博耶 Steven Boyer
) F+ u7 ]! }( }& g       约翰·帕拉迪诺 John Palladino2 Z3 M* l- k5 g/ g* B; ~. ^4 a
       扎克里·伯德 Zachery Byrd9 h' g; C6 j/ a4 F; n
       汤米·布里德摩尔 Tommy Beardmore
( e4 O3 Z0 L! G- I8 p& k% F/ t- P       列尼斯·德洛桑托斯 Leonys Delossantos
& V/ ^& q1 K" [/ h7 s, g       纳迪娅·凯 Nadia Kay: y7 g1 u. M& \, p0 Y
       桃乐丝·麦卡锡 Doris McCarthy+ B, L  E0 M4 @# Y+ n. L! g4 |8 n" U

* [2 \! e7 b: Y' k: d0 T) m- Q; C% k
标  签 美国 | 女性 | 2019 | 犯罪 | 剧情 | 笑剧 | 实在事务改编 | 欺骗
+ w: D% }  ?$ b( c
% y# K  [+ W* Q: K& _: |简  介  
: b  N0 }0 R2 x/ o, `! _5 L0 ]
+ H9 [& s+ E* s" @# \  b# B2 F$ w  STX接手建造由詹妮弗·洛佩兹主演的[拉客],此前该片由Annapurna打造。与此同时吴恬敏也公布加盟影片,本片故事改编自《纽约客》同名文章,报告在金融危机以后,依靠华尔街客户的脱衣舞舞者的生存故事。洛佩兹将饰演一位大志勃勃的舞者大佬,率领她们计划更久远的未来。该片也是Annapurna本日第二部遭受建造变化的影片。1 x% _; T* X8 x! l$ e7 v
4 Q. n- g3 W7 C, ~: W
获奖情况  
4 F7 ^8 t8 }3 d; g/ ~, r/ ~& m) G/ r8 U0 g6 B
  第7届美国化装及发型设想工会奖(2020)
( ?+ e- {* j. u7 \1 i  电影类最好现代戏化装(提名)
' e! y# {6 D9 z0 s% q9 z: w  i  电影类最好现代戏发型设想(提名)
; }# o" a' F% G; e7 V, ]+ p* C' Z0 x1 q+ k+ w! o$ ?. ]2 P6 \
  第29届哥谭自力电影奖(2019)+ n2 v0 K) E% g5 {# z
  最好影片(提名)
3 F7 w, n8 a8 N( W
  1. Video2 b( c: ]' T& s. A" m) S2 e: [
  2. ID                                       : 1
    & W6 U: ]( h. L( a* l
  3. Format                                   : AVC/ K% ]+ ]" w3 `9 `7 d
  4. Format/Info                              : Advanced Video Codec; L1 {- R$ J( \, E9 n
  5. Format profile                           : High@L43 f7 H8 W5 L8 u% q
  6. Format settings                          : CABAC / 5 Ref Frames
    1 y, G3 k3 X; i
  7. Format settings, CABAC                   : Yes0 \7 W0 C+ k: y5 W* A2 s
  8. Format settings, Reference frames        : 5 frames
    + s% c8 ~$ O; f% K" a/ S8 i
  9. Codec ID                                 : V_MPEG4/ISO/AVC/ `- H4 z4 G, @4 i9 w$ L. T/ N0 w
  10. Duration                                 : 1 h 50 min
    3 G* a  ?# N3 J' l% M& `; V
  11. Bit rate                                 : 5 038 kb/s+ Q0 h# u  u4 I) u6 ]! @8 N
  12. Width                                    : 1 280 pixels
    - P* q: L1 I% r4 S  g1 ?
  13. Height                                   : 536 pixels  |! ^) o& m! }# ]) ^/ ?5 J, Q( l
  14. Display aspect ratio                     : 2.40:1+ O4 l5 o( t( }
  15. Frame rate mode                          : Constant+ t3 i* C; L6 c0 A4 ^! ~
  16. Frame rate                               : 23.976 (24000/1001) FPS; g! j) z+ J& T5 A# j
  17. Color space                              : YUV
    " b1 V/ z. z6 n! r
  18. Chroma subsampling                       : 4:2:0
    $ }" R* g# u1 z
  19. Bit depth                                : 8 bits: W4 G* |/ ~+ [- ~. P- s5 U3 a
  20. Scan type                                : Progressive9 U# e4 I$ Q& a5 |
  21. Bits/(Pixel*Frame)                       : 0.306  \  S* B- @* B  @  V) L
  22. Stream size                              : 3.87 GiB (89%)
    8 ^& E- n- T. [: Y2 Z
  23. Title                                    : Hustlers.2019.720p.BluRay.x264-AAA3 k, d) e- F6 o9 q* G
  24. Writing library                          : x264 core 157 r2969 d4099dd
    : Q  f; |7 K( r: i
  25. Encoding settings                        : cabac=1 / ref=5 / deblock=1:0:0 / analyse=0x3:0x113 / me=umh / subme=8 / psy=1 / psy_rd=1.00:0.00 / mixed_ref=1 / me_range=16 / chroma_me=1 / trellis=1 / 8x8dct=1 / cqm=0 / deadzone=21,11 / fast_pskip=1 / chroma_qp_offset=-2 / threads=16 / lookahead_threads=2 / sliced_threads=0 / nr=0 / decimate=1 / interlaced=0 / bluray_compat=0 / constrained_intra=0 / bframes=3 / b_pyramid=2 / b_adapt=2 / b_bias=0 / direct=3 / weightb=1 / open_gop=0 / weightp=2 / keyint=240 / keyint_min=23 / scenecut=40 / intra_refresh=0 / rc_lookahead=50 / rc=2pass / mbtree=1 / bitrate=5038 / ratetol=1.0 / qcomp=0.60 / qpmin=0 / qpmax=69 / qpstep=4 / cplxblur=20.0 / qblur=0.5 / ip_ratio=1.40 / aq=1:1.002 G$ V( E' E: P- q' y, |/ @/ C
  26. Language                                 : English+ d! |& ?" p7 Z( \
  27. Default                                  : Yes
    & k8 B5 U& S) I6 d; n4 ~- S
  28. Forced                                   : No
    & q% ?3 z8 o  Q

  29. * k* f  y9 Q; A% w$ J
  30. Audio( R. K2 v0 i" e  X7 s
  31. ID                                       : 2$ I2 s5 T% M! G( i9 S
  32. Format                                   : AC-3
    ( U9 V: w& k: d5 J% O
  33. Format/Info                              : Audio Coding 3
    2 N. E) G( q) w. m
  34. Commercial name                          : Dolby Digital
    # L# e  O: T, ~7 g! f% `
  35. Codec ID                                 : A_AC31 _" u* p& r1 I# i
  36. Duration                                 : 1 h 50 min
    8 d# o9 j6 x4 S2 V# Z6 x. h
  37. Bit rate mode                            : Constant* c& g  L2 n* j$ K; d8 r
  38. Bit rate                                 : 640 kb/s
    2 v$ s+ k) x( T$ U
  39. Channel(s)                               : 6 channels1 ~- Y7 N! _) w
  40. Channel layout                           : L R C LFE Ls Rs
      i4 r/ }; W  k
  41. Sampling rate                            : 48.0 kHz
    3 J6 \0 I1 ?& o# r
  42. Frame rate                               : 31.250 FPS (1536 SPF), d# [+ I- L' D5 T, M$ C
  43. Bit depth                                : 16 bits7 i+ n$ m( W2 @) v* S
  44. Compression mode                         : Lossy
    - f$ T( P$ ^( ^5 c
  45. Stream size                              : 504 MiB (11%)4 s" A9 ]$ k. J% R& E2 ^( @3 t0 k
  46. Title                                    : English
    ) X$ {# j3 V3 ?: O6 H
  47. Language                                 : English" T8 ^0 p0 p; R! L7 y9 a2 q! N5 ]
  48. Service kind                             : Complete Main1 J! C; ~5 I* a( F9 L  c
  49. Default                                  : Yes
    / b* b/ j* X8 @$ G) k  q* N) x( a. j
  50. Forced                                   : No& S' w2 P4 F0 |$ `" O
  51. 4 E" a3 K3 @) k) v9 P# E9 Z
  52. Menu
    " d" H8 ^) }' ^% @% l
  53. 00:00:00.000                             : en:00:00:00.0001 u" h' W& c1 L
  54. 00:05:09.017                             : en:00:05:09.017
    0 Y. U. Q& f6 A% Z4 x1 N" x6 u
  55. 00:11:19.345                             : en:00:11:19.345
    8 @3 @! ~: q* L% K/ K2 y  S* T' `
  56. 00:15:04.821                             : en:00:15:04.8216 }1 D* _* B8 \' n9 `/ }
  57. 00:21:22.823                             : en:00:21:22.823
    ; M3 v: J# c9 l+ z; I
  58. 00:24:47.736                             : en:00:24:47.736
    % [( P0 _2 _& `& C) R
  59. 00:30:46.178                             : en:00:30:46.178
    9 e1 N, w. S9 T- A: a7 p
  60. 00:35:16.698                             : en:00:35:16.698% J5 j2 t" \6 c7 a4 d" `
  61. 00:40:44.067                             : en:00:40:44.067
    1 O% s8 W, I2 l6 m
  62. 00:45:31.979                             : en:00:45:31.979
    , c) q  f8 C8 H0 E
  63. 00:52:58.550                             : en:00:52:58.550
    " }5 r# o5 b' C4 Q0 _
  64. 01:00:36.758                             : en:01:00:36.758; C3 B" G9 x2 b# C: p7 R6 {6 M
  65. 01:04:27.030                             : en:01:04:27.030; c' i5 u- j) [: w! W- v( w
  66. 01:10:08.287                             : en:01:10:08.287/ B7 u" H8 U9 i1 Q7 |* r* r
  67. 01:15:02.581                             : en:01:15:02.581
      F5 r/ j1 i' @0 X9 J: z* h
  68. 01:20:53.724                             : en:01:20:53.724
    3 f2 V5 n3 d* V, X
  69. 01:27:47.762                             : en:01:27:47.7623 X8 ?' q- ?/ C; t* N
  70. 01:32:23.329                             : en:01:32:23.3293 F4 }+ \# n  Q
  71. 01:37:27.091                             : en:01:37:27.091# n1 R6 W$ @. c1 @4 R' k
  72. 01:42:29.977                             : en:01:42:29.977
复制代码

* p( j8 [: r" @7 M& B6 s 舞女大盗 Hustlers.2019.720p.BluRay.x264-AAA 4.37GB-2.png / u7 h, J% E7 g1 P+ \
! [# g& t" {: H4 [4 }

4 H( x2 O1 u: Q) X; E: Y- v7 f6 ]! w/ u: J' A& U, ~
! A: B# C# f* @4 p* l# T

$ r( B0 m5 T& _. L; |) \3 w4 b( ^# d3 F! d) h
6 E+ E" [9 P7 H& N" T; S
回复

使用道具 举报

级别:普通观众 Lv.2

注册时间
2019-11-22
最后登录
2019-12-21
听众
1
收听
0
主题
0
蓝光币
14 枚
贡献
0 点
发表于 2019-11-30 17:31:13 | 显示全部楼层
谢谢楼主分享
回复

使用道具 举报

级别:荣升主角 Lv.5

注册时间
2019-10-27
最后登录
2020-6-1
听众
1
收听
0
主题
0
蓝光币
516 枚
贡献
0 点
发表于 2019-11-30 22:06:41 | 显示全部楼层
楼主发贴辛苦了,谢谢楼主分享!我觉得中国高清电影网是注册对了!
回复

使用道具 举报

级别:普通观众 Lv.2

注册时间
2019-3-31
最后登录
2020-4-6
听众
8
收听
0
主题
0
蓝光币
55 枚
贡献
0 点
发表于 2019-11-30 23:40:01 | 显示全部楼层
吴,华人?韩国?
回复

使用道具 举报

级别:领衔主演 Lv.6

注册时间
2018-2-26
最后登录
2020-5-28
听众
17
收听
0
主题
0
蓝光币
276 枚
贡献
0 点
发表于 2019-12-2 11:33:20 | 显示全部楼层

) U: F7 V5 A' r, Z9 S' X既然你诚信诚意的推荐了,那我就勉为其难的看看吧!中国高清电影网不走平凡路。
回复

使用道具 举报

级别:群众演员 Lv.3

注册时间
2019-11-29
最后登录
2020-5-24
听众
1
收听
0
主题
0
蓝光币
1 枚
贡献
0 点
发表于 2019-12-2 19:47:58 | 显示全部楼层
楼主发贴辛苦了,谢谢楼主分享!我觉得中国高清电影网是注册对了!
回复

使用道具 举报

级别:功成名就 Lv.9

注册时间
2019-4-24
最后登录
2020-6-1
听众
14
收听
0
主题
0
蓝光币
540 枚
贡献
0 点
发表于 2019-12-3 08:44:19 | 显示全部楼层
楼主发贴辛苦了,谢谢楼主分享!我觉得中国高清电影网是注册对了!
回复

使用道具 举报

级别:普通观众 Lv.2

注册时间
2019-12-2
最后登录
2020-3-17
听众
1
收听
0
主题
0
蓝光币
38 枚
贡献
0 点
发表于 2019-12-6 15:06:13 | 显示全部楼层
谢谢楼主分享
回复

使用道具 举报

级别:群众演员 Lv.3

注册时间
2020-2-2
最后登录
2020-5-31
听众
3
收听
0
主题
0
蓝光币
180 枚
贡献
0 点
QQ
发表于 2020-2-2 12:58:37 | 显示全部楼层

) `6 s3 U% A5 d2 d3 W* |2 [+ X$ d* p楼主太厉害了!楼主,电影应该很好看我觉得中国高清电影网真是个好地方!
回复

使用道具 举报

级别:群众演员 Lv.3

注册时间
2020-3-31
最后登录
2020-6-1
听众
1
收听
0
主题
0
蓝光币
38 枚
贡献
0 点
发表于 2020-4-2 22:36:48 | 显示全部楼层
: V1 z4 W. P; i* ]
楼主,我太崇拜你了!我想我是一天也不能离开中国高清电影网
回复

使用道具 举报

懒得打字嘛,点击右侧快捷回复 【右侧内容,后台自定义】
您需要登录后才可以回帖 登录 | 立即注册

本版积分规则

Archiver|手机版|小黑屋| 中国高清网 ( ICP备17007870号-2 ) |网站地图 

GMT+8, 2020-6-1 21:41 , Processed in 0.184440 second(s), 39 queries .

Powered by HDchina X3.4

Copyright 2017-2019©HDchina.All right reserved

返回顶部 联系我们