你所知道的4K资源这里全部都有 4K电影 | 4K视频 | 4K壁纸 | 4K MV 怎么播放4K视频 | 4K电视演示片

教你玩转4K私人与家庭影院存储 NAS组装 | 黑群辉 家庭/影院Nas论坛

4K家庭影院信号源与视频设备知识 4K蓝光高清播放机 - 那个品牌好? 4K投影机论坛 | 4K电视机论坛

手把手教你搭建属于自己的家庭影院 4K家庭影院案例 | 家庭影院音频 4K家庭影院论坛

查看: 59|回复: 0

[10bit.HDR] 雷霆沙赞! Shazam.2019.2160p.UHD.BluRay.X265.10bit.HDR.TrueHD.7.1.Atmos-TERMiNAL 42.78GB

[复制链接]

 成长值: 1890

级别:资源管理组

注册时间
2017-10-20
最后登录
2019-7-17
听众
0
收听
0
主题
79403
蓝光币
35930 枚
贡献
3728 点
发表于 2019-7-9 17:53:19 | 显示全部楼层 |阅读模式
雷霆沙赞! Shazam.2019.2160p.UHD.BluRay.X265.10bit.HDR.TrueHD.7.1.Atmos-TERMiNAL 42.78GB-1.png

译  名 雷霆沙赞! / Billy Batson and the Legend of Shazam! / Franklin / 奇迹队长 / 沙赞 / 沙赞!(台) / 沙赞!神力集结(港) / 奇异上尉 / 雷霆沙赞
片  名 Shazam!
年  代 2019
产  地 美国
类  别 行动 / 奇异 / 冒险
语  言 英语
上映日期 2019-04-05(美国/中国大陆)
IMDb评分  7.5/10 from 100273 users
IMDb链接  http://www.imdb.com/title/tt0448115
豆瓣评分 6.6/10 from 110901 users
豆瓣链接 https://movie.douban.com/subject/2244426/
片  长 132分钟
导  演 大卫·F·桑德伯格 David F. Sandberg
编  剧 亨利·盖登 Henry Gayden / 达伦·莱姆克 Darren Lemke / 比尔·帕克 Bill Parker / C·C·贝克 C.C. Beck
主  演 扎克瑞·莱维 Zachary Levi
      马克·斯特朗 Mark Strong
      亚瑟·安其 Asher Angel
      杰克·迪伦·格雷泽 Jack Dylan Grazer
      杰曼·翰苏 Djimon Hounsou
      费滋·赫尔曼 Faithe Herman
      约文·阿曼德 Jovan Armand
      陈琦烨 Ian Chen
      格蕾丝·富尔顿 Grace Fulton
      亚当·布罗迪 Adam Brody
      梅根·古德 Meagan Good
      米歇尔·博斯 Michelle Borth
      罗斯·巴特勒 Ross Butler
      马尔塔·米兰斯 Marta Milans
      库珀·安德鲁斯 Cooper Andrews
      罗维娜·亚瓦里 Lovina Yavari
      埃文·马什 Evan Marsh
      娜塔莉亚姗福瑞 Natalia Safran
      D·J·科特罗纳 D.J. Cotrona
      艾娃·普雷斯顿 Ava Preston
      安迪·奥修 Andi Osho
      卡尔森·迈克马克 Carson MacCormac
      莎伊娜·瑞恩 Shayna Ryan
      莎拉·贝纳尼 Sarah Bennani
      安吉莉卡·利斯克 Angelica Lisk
      辛迪·戴 Cyndy Day
      洛塔·洛森 Lotta Losten
      西蒙·诺斯伍德 Simon Northwood
      戴维·科赫史姑娘 David Kohlsmith
      卢·卢·萨夫兰 Lou Lou Safran
      Adam Rodness
      杰夫·桑卡 Jeff Sanca
      阿里·巴德沙阿 Ali Badshah
      大卫·J·麦克尼尔 David J. MacNeil
      达娜·雷兹尼克 Dana Reznik
      迪索·拉莫斯 Diezel Ramos


标  签 DC | 超级豪杰 | 沙雕 | 美国 | 笑剧 | 漫画改编 | 2019 | 科幻

简  介  

  因儿时与母亲失散,少年比利(亚瑟·安其 Asher Angel 饰)辗转多个家庭,却固执地要回到妈妈身旁。当他再度居住一个由养子养女的大师庭时,却鬼使神差来到某个未知的范畴,而且成为陈腐巫师的继续人。当他喊出“沙赞”时,便会瞬间酿成具有强健成年人身材的超级豪杰雷霆沙赞(扎克瑞·莱维 Zachary Levi 饰)。比利兴奋不已,和新家的兄弟——得了腿部残疾的弗雷迪(杰克·迪伦·格雷泽 Jack Dylan Grazer 饰)配合分享这份欢畅,两人更将展现各类超才能的视频上传收集,流布四方。成果,包藏祸心的赛迪斯·希瓦纳博士(马克·斯特朗 Mark Strong 饰)找上门来。
希瓦纳童年时曾与沙赞身份失之交臂,一向不受父亲兄长待见的他将灵魂出售给七宗罪魔鬼,他更诡计摧毁阿谁让他求之不得又恨之入骨的雷霆沙赞……

  1. Video
  2. ID                                       : 1
  3. Format                                   : HEVC
  4. Format/Info                              : High Efficiency Video Coding
  5. Commercial name                          : HDR10
  6. Format profile                           : Main <a href="/cdn-cgi/l/email-protection" class="__cf_email__" data-cfemail="9aabaadad6afb4ab">[email protected]</a>@High
  7. Codec ID                                 : V_MPEGH/ISO/HEVC
  8. Duration                                 : 2 h 11 min
  9. Bit rate                                 : 42.0 Mb/s
  10. Width                                    : 3 840 pixels
  11. Height                                   : 1 608 pixels
  12. Display aspect ratio                     : 2.40:1
  13. Frame rate mode                          : Constant
  14. Frame rate                               : 23.976 (24000/1001) FPS
  15. Color space                              : YUV
  16. Chroma subsampling                       : 4:2:0 (Type 2)
  17. Bit depth                                : 10 bits
  18. Bits/(Pixel*Frame)                       : 0.284
  19. Stream size                              : 38.7 GiB (91%)
  20. Writing library                          : x265 3.1b36c03e4e771:[Windows][GCC 6.3.0][64 bit] 10bit
  21. Encoding settings                        : cpuid=1176575 / frame-threads=5 / numa-pools=36 / wpp / no-pmode / no-pme / no-psnr / no-ssim / log-level=2 / input-csp=1 / input-res=3840x1608 / interlace=0 / total-frames=189484 / level-idc=51 / high-tier=1 / uhd-bd=0 / ref=4 / no-allow-non-conformance / repeat-headers / annexb / aud / hrd / info / hash=0 / no-temporal-layers / no-open-gop / min-keyint=1 / keyint=24 / gop-lookahead=0 / bframes=4 / b-adapt=2 / b-pyramid / bframe-bias=0 / rc-lookahead=25 / lookahead-slices=4 / scenecut=40 / radl=0 / no-splice / no-intra-refresh / ctu=64 / min-cu-size=8 / rect / no-amp / max-tu-size=32 / tu-inter-depth=1 / tu-intra-depth=1 / limit-tu=0 / rdoq-level=2 / dynamic-rd=0.00 / no-ssim-rd / signhide / no-tskip / nr-intra=0 / nr-inter=0 / no-constrained-intra / no-strong-intra-smoothing / max-merge=3 / limit-refs=3 / limit-modes / me=3 / subme=3 / merange=57 / temporal-mvp / weightp / no-weightb / no-analyze-src-pics / deblock=-3:-3 / no-sao / no-sao-non-deblock / rd=4 / no-early-skip / rskip / no-fast-intra / no-tskip-fast / no-cu-lossless / no-b-intra / no-splitrd-skip / rdpenalty=0 / psy-rd=2.00 / psy-rdoq=1.00 / no-rd-refine / no-lossless / cbqpoffs=0 / crqpoffs=0 / rc=crf / crf=17.0 / qcomp=0.60 / qpstep=4 / stats-write=0 / stats-read=0 / vbv-maxrate=160000 / vbv-bufsize=160000 / vbv-init=0.9 / crf-max=0.0 / crf-min=0.0 / ipratio=1.40 / pbratio=1.30 / aq-mode=2 / aq-strength=1.00 / cutree / zone-count=0 / no-strict-cbr / qg-size=32 / no-rc-grain / qpmax=69 / qpmin=0 / no-const-vbv / sar=1 / overscan=0 / videoformat=5 / range=0 / colorprim=9 / transfer=16 / colormatrix=9 / chromaloc=1 / chromaloc-top=2 / chromaloc-bottom=2 / display-window=0 / master-display=G(13250,34500)B(7500,3000)R(34000,16000)WP(15635,16450)L(40000000,50)cll=1351,384 / min-luma=0 / max-luma=1023 / log2-max-poc-lsb=8 / vui-timing-info / vui-hrd-info / slices=1 / no-opt-qp-pps / no-opt-ref-list-length-pps / no-multi-pass-opt-rps / scenecut-bias=0.05 / no-opt-cu-delta-qp / no-aq-motion / hdr / hdr-opt / no-dhdr10-opt / no-idr-recovery-sei / analysis-reuse-level=5 / scale-factor=0 / refine-intra=0 / refine-inter=0 / refine-mv=0 / refine-ctu-distortion=0 / no-limit-sao / ctu-info=0 / no-lowpass-dct / refine-analysis-type=0 / copy-pic=1 / max-ausize-factor=1.0 / no-dynamic-refine / no-single-sei / no-hevc-aq / no-svt / no-field / qp-adaptation-range=1.00
  22. Default                                  : Yes
  23. Forced                                   : No
  24. Color range                              : Limited
  25. Color primaries                          : BT.2020
  26. Transfer characteristics                 : PQ
  27. Matrix coefficients                      : BT.2020 non-constant
  28. Mastering display color primaries        : Display P3
  29. Mastering display luminance              : min: 0.0050 cd/m2, max: 4000 cd/m2
  30. Maximum Content Light Level              : 1351 cd/m2
  31. Maximum Frame-Average Light Level        : 384 cd/m2

  32. Audio #1
  33. ID                                       : 2
  34. Format                                   : MLP FBA 16-ch
  35. Format/Info                              : Meridian Lossless Packing FBA with 16-channel presentation
  36. Commercial name                          : Dolby TrueHD with Dolby Atmos
  37. Codec ID                                 : A_TRUEHD
  38. Duration                                 : 2 h 11 min
  39. Bit rate mode                            : Variable
  40. Bit rate                                 : 3 645 kb/s
  41. Maximum bit rate                         : 5 931 kb/s
  42. Channel(s)                               : 8 channels
  43. Channel layout                           : L R C LFE Ls Rs Lb Rb
  44. Sampling rate                            : 48.0 kHz
  45. Frame rate                               : 1 200.000 FPS (40 SPF)
  46. Compression mode                         : Lossless
  47. Stream size                              : 3.35 GiB (8%)
  48. Language                                 : English
  49. Default                                  : Yes
  50. Forced                                   : No
  51. Number of dynamic objects                : 15
  52. Bed channel count                        : 1 channel
  53. Bed channel configuration                : LFE

  54. Audio #2
  55. ID                                       : 3
  56. Format                                   : AC-3
  57. Format/Info                              : Audio Coding 3
  58. Commercial name                          : Dolby Digital
  59. Codec ID                                 : A_AC3
  60. Duration                                 : 2 h 11 min
  61. Bit rate mode                            : Constant
  62. Bit rate                                 : 448 kb/s
  63. Channel(s)                               : 6 channels
  64. Channel layout                           : L R C LFE Ls Rs
  65. Sampling rate                            : 48.0 kHz
  66. Frame rate                               : 31.250 FPS (1536 SPF)
  67. Bit depth                                : 16 bits
  68. Compression mode                         : Lossy
  69. Stream size                              : 422 MiB (1%)
  70. Language                                 : English
  71. Service kind                             : Complete Main
  72. Default                                  : No
  73. Forced                                   : No

  74. Text #1
  75. ID                                       : 4
  76. Format                                   : PGS
  77. Muxing mode                              : zlib
  78. Codec ID                                 : S_HDMV/PGS
  79. Codec ID/Info                            : Picture based subtitle format used on BDs/HD-DVDs
  80. Duration                                 : 2 h 11 min
  81. Bit rate                                 : 37.5 kb/s
  82. Count of elements                        : 4310
  83. Stream size                              : 35.3 MiB (0%)
  84. Title                                    : English SDH
  85. Language                                 : English
  86. Default                                  : No
  87. Forced                                   : No

  88. Text #2
  89. ID                                       : 5
  90. Format                                   : PGS
  91. Muxing mode                              : zlib
  92. Codec ID                                 : S_HDMV/PGS
  93. Codec ID/Info                            : Picture based subtitle format used on BDs/HD-DVDs
  94. Duration                                 : 2 h 10 min
  95. Bit rate                                 : 23.4 kb/s
  96. Count of elements                        : 3148
  97. Stream size                              : 21.9 MiB (0%)
  98. Title                                    : French 1
  99. Language                                 : French
  100. Default                                  : No
  101. Forced                                   : No

  102. Text #3
  103. ID                                       : 6
  104. Format                                   : PGS
  105. Muxing mode                              : zlib
  106. Codec ID                                 : S_HDMV/PGS
  107. Codec ID/Info                            : Picture based subtitle format used on BDs/HD-DVDs
  108. Duration                                 : 2 h 11 min
  109. Bit rate                                 : 35.9 kb/s
  110. Count of elements                        : 4414
  111. Stream size                              : 33.8 MiB (0%)
  112. Title                                    : Italian 1
  113. Language                                 : Italian
  114. Default                                  : No
  115. Forced                                   : No

  116. Text #4
  117. ID                                       : 7
  118. Format                                   : PGS
  119. Muxing mode                              : zlib
  120. Codec ID                                 : S_HDMV/PGS
  121. Codec ID/Info                            : Picture based subtitle format used on BDs/HD-DVDs
  122. Duration                                 : 2 h 10 min
  123. Bit rate                                 : 27.0 kb/s
  124. Count of elements                        : 3160
  125. Stream size                              : 25.2 MiB (0%)
  126. Title                                    : Chinese 1
  127. Language                                 : Chinese
  128. Default                                  : No
  129. Forced                                   : No

  130. Text #5
  131. ID                                       : 8
  132. Format                                   : PGS
  133. Muxing mode                              : zlib
  134. Codec ID                                 : S_HDMV/PGS
  135. Codec ID/Info                            : Picture based subtitle format used on BDs/HD-DVDs
  136. Duration                                 : 2 h 10 min
  137. Bit rate                                 : 26.8 kb/s
  138. Count of elements                        : 3514
  139. Stream size                              : 25.0 MiB (0%)
  140. Title                                    : Chinese 2
  141. Language                                 : Chinese
  142. Default                                  : No
  143. Forced                                   : No

  144. Text #6
  145. ID                                       : 9
  146. Format                                   : PGS
  147. Muxing mode                              : zlib
  148. Codec ID                                 : S_HDMV/PGS
  149. Codec ID/Info                            : Picture based subtitle format used on BDs/HD-DVDs
  150. Duration                                 : 2 h 10 min
  151. Bit rate                                 : 17.1 kb/s
  152. Count of elements                        : 3502
  153. Stream size                              : 16.0 MiB (0%)
  154. Title                                    : Korean
  155. Language                                 : Korean
  156. Default                                  : No
  157. Forced                                   : No

  158. Text #7
  159. ID                                       : 10
  160. Format                                   : PGS
  161. Muxing mode                              : zlib
  162. Codec ID                                 : S_HDMV/PGS
  163. Codec ID/Info                            : Picture based subtitle format used on BDs/HD-DVDs
  164. Duration                                 : 2 h 10 min
  165. Bit rate                                 : 30.6 kb/s
  166. Count of elements                        : 3500
  167. Stream size                              : 28.6 MiB (0%)
  168. Title                                    : Spanish
  169. Language                                 : Spanish
  170. Default                                  : No
  171. Forced                                   : No

  172. Text #8
  173. ID                                       : 11
  174. Format                                   : PGS
  175. Muxing mode                              : zlib
  176. Codec ID                                 : S_HDMV/PGS
  177. Codec ID/Info                            : Picture based subtitle format used on BDs/HD-DVDs
  178. Duration                                 : 2 h 10 min
  179. Bit rate                                 : 17.1 kb/s
  180. Count of elements                        : 3514
  181. Stream size                              : 16.0 MiB (0%)
  182. Title                                    : Arabic
  183. Language                                 : Arabic
  184. Default                                  : No
  185. Forced                                   : No

  186. Text #9
  187. ID                                       : 12
  188. Format                                   : PGS
  189. Muxing mode                              : zlib
  190. Codec ID                                 : S_HDMV/PGS
  191. Codec ID/Info                            : Picture based subtitle format used on BDs/HD-DVDs
  192. Duration                                 : 2 h 10 min
  193. Bit rate                                 : 26.2 kb/s
  194. Count of elements                        : 2492
  195. Stream size                              : 24.6 MiB (0%)
  196. Title                                    : Danish
  197. Language                                 : Danish
  198. Default                                  : No
  199. Forced                                   : No

  200. Text #10
  201. ID                                       : 13
  202. Format                                   : PGS
  203. Muxing mode                              : zlib
  204. Codec ID                                 : S_HDMV/PGS
  205. Codec ID/Info                            : Picture based subtitle format used on BDs/HD-DVDs
  206. Duration                                 : 2 h 10 min
  207. Bit rate                                 : 25.2 kb/s
  208. Count of elements                        : 3498
  209. Stream size                              : 23.6 MiB (0%)
  210. Title                                    : Finnish
  211. Language                                 : Finnish
  212. Default                                  : No
  213. Forced                                   : No

  214. Text #11
  215. ID                                       : 14
  216. Format                                   : PGS
  217. Muxing mode                              : zlib
  218. Codec ID                                 : S_HDMV/PGS
  219. Codec ID/Info                            : Picture based subtitle format used on BDs/HD-DVDs
  220. Duration                                 : 2 h 10 min
  221. Bit rate                                 : 26.9 kb/s
  222. Count of elements                        : 3080
  223. Stream size                              : 25.2 MiB (0%)
  224. Title                                    : Norwegian
  225. Language                                 : Norwegian
  226. Default                                  : No
  227. Forced                                   : No

  228. Text #12
  229. ID                                       : 15
  230. Format                                   : PGS
  231. Muxing mode                              : zlib
  232. Codec ID                                 : S_HDMV/PGS
  233. Codec ID/Info                            : Picture based subtitle format used on BDs/HD-DVDs
  234. Duration                                 : 2 h 10 min
  235. Bit rate                                 : 27.6 kb/s
  236. Count of elements                        : 3448
  237. Stream size                              : 25.9 MiB (0%)
  238. Title                                    : Polish
  239. Language                                 : Polish
  240. Default                                  : No
  241. Forced                                   : No

  242. Text #13
  243. ID                                       : 16
  244. Format                                   : PGS
  245. Muxing mode                              : zlib
  246. Codec ID                                 : S_HDMV/PGS
  247. Codec ID/Info                            : Picture based subtitle format used on BDs/HD-DVDs
  248. Duration                                 : 2 h 10 min
  249. Bit rate                                 : 26.8 kb/s
  250. Count of elements                        : 3486
  251. Stream size                              : 25.1 MiB (0%)
  252. Title                                    : Swedish
  253. Language                                 : Swedish
  254. Default                                  : No
  255. Forced                                   : No

  256. Text #14
  257. ID                                       : 17
  258. Format                                   : PGS
  259. Muxing mode                              : zlib
  260. Codec ID                                 : S_HDMV/PGS
  261. Codec ID/Info                            : Picture based subtitle format used on BDs/HD-DVDs
  262. Duration                                 : 2 h 10 min
  263. Bit rate                                 : 30.2 kb/s
  264. Count of elements                        : 3508
  265. Stream size                              : 28.2 MiB (0%)
  266. Title                                    : Turkish
  267. Language                                 : Turkish
  268. Default                                  : No
  269. Forced                                   : No

  270. Text #15
  271. ID                                       : 18
  272. Format                                   : PGS
  273. Muxing mode                              : zlib
  274. Codec ID                                 : S_HDMV/PGS
  275. Codec ID/Info                            : Picture based subtitle format used on BDs/HD-DVDs
  276. Duration                                 : 2 h 10 min
  277. Bit rate                                 : 602 b/s
  278. Count of elements                        : 46
  279. Stream size                              : 576 KiB (0%)
  280. Title                                    : French 2
  281. Language                                 : French
  282. Default                                  : No
  283. Forced                                   : No

  284. Text #16
  285. ID                                       : 19
  286. Format                                   : PGS
  287. Muxing mode                              : zlib
  288. Codec ID                                 : S_HDMV/PGS
  289. Codec ID/Info                            : Picture based subtitle format used on BDs/HD-DVDs
  290. Duration                                 : 2 h 10 min
  291. Bit rate                                 : 912 b/s
  292. Count of elements                        : 102
  293. Stream size                              : 872 KiB (0%)
  294. Title                                    : Italian 2
  295. Language                                 : Italian
  296. Default                                  : No
  297. Forced                                   : No
复制代码

雷霆沙赞! Shazam.2019.2160p.UHD.BluRay.X265.10bit.HDR.TrueHD.7.1.Atmos-TERMiNAL 42.78GB-2.png 雷霆沙赞! Shazam.2019.2160p.UHD.BluRay.X265.10bit.HDR.TrueHD.7.1.Atmos-TERMiNAL 42.78GB-3.png 雷霆沙赞! Shazam.2019.2160p.UHD.BluRay.X265.10bit.HDR.TrueHD.7.1.Atmos-TERMiNAL 42.78GB-4.png






本帖隐藏的下载地址需要VIP会员才可阅读,您需要升级才可阅读,点击这里升级VIP

回复

使用道具 举报

*滑动验证:
懒得打字嘛,点击右侧快捷回复 【右侧内容,后台自定义】
您需要登录后才可以回帖 登录 | 立即注册

本版积分规则

QQ|Archiver|手机版|小黑屋| 中国高清网 |网站地图

GMT+8, 2019-7-17 01:13 , Processed in 0.885872 second(s), 44 queries .

Powered by HDchina X3.4

Copyright 2017-2019©HDchina.All right reserved

返回顶部 联系我们