你所知道的4K资源这里全部都有 4K电影 | 4K视频 | 4K壁纸 | 4K MV 怎么播放4K视频 | 4K电视演示片

教你玩转4K私人与家庭影院存储 NAS组装 | 黑群辉 家庭/影院Nas论坛

4K家庭影院信号源与视频设备知识 4K蓝光高清播放机 - 那个品牌好? 4K投影机论坛 | 4K电视机论坛

手把手教你搭建属于自己的家庭影院 4K家庭影院案例 | 家庭影院音频 4K家庭影院论坛

查看: 173|回复: 4

[剧情片] 这个男人来自疯狂世界 The.Man.Who.Killed.Don.Quixote.2018.720p.BluRay.X264-AMIABLE 5.48GB

[复制链接]

 成长值: 1670

级别:资源管理组

注册时间
2017-10-20
最后登录
2019-6-25
听众
0
收听
0
主题
78745
蓝光币
29084 枚
贡献
3070 点
发表于 2019-6-9 23:07:07 | 显示全部楼层 |阅读模式
这个汉子来自疯狂天下 The.Man.Who.Killed.Don.Quixote.2018.720p.BluRay.X264-AMIABLE 5.48GB-1.png
8 i+ c/ x6 B/ H9 z6 `2 A& {9 K) m9 _) a8 k1 V' ~4 v* l
译  名 这个汉子来自疯狂天下 / The Man Who Killed Don Quixote / 杀了唐吉诃德的汉子 / 杀死堂吉诃德的人 / 谁杀了堂吉诃德 / 谁杀死了堂吉诃德  U) x$ E% I5 o0 \; r5 E+ n
片  名 El hombre que mató a Don Quijote
' |' F+ @- a/ l4 L. |4 D年  代 2018$ a9 b, @; [# }+ X
产  地 西班牙 / 比利时 / 法国 / 葡萄牙 / 英国+ Q6 k! D. p+ D' v; {" n0 z6 x
类  别 剧情 / 笑剧 / 奇异 / 冒险
- l7 g& z0 m, ], T5 @7 j语  言 英语 / 西班牙语
; T1 ~* \0 O$ O2 o& l9 s& h上映日期 2018-05-19(戛纳电影节) / 2018-06-01(西班牙); C' t; e7 d  k& h3 G
IMDb评分  6.5/10 from 8051 users
5 l' M* ~- s' J! ^IMDb链接  http://www.imdb.com/title/tt1318517' H* {" y- ]3 E  d$ Q& \" E8 z& R5 V2 Z
豆瓣评分 6.9/10 from 1588 users
. a  d  G" s9 n豆瓣链接 https://movie.douban.com/subject/3274508/6 H3 [4 Y; x& e  G
片  长 132分钟+ L4 N4 x1 K2 W5 c2 P) H0 i# ^
导  演 特瑞·吉列姆 Terry Gilliam
/ ?  L- R! l0 D/ C  Q5 v1 E: v2 n. h编  剧 特瑞·吉列姆 Terry Gilliam / 托尼·格里森尼 Tony Grisoni / 塞万提斯 Miguel de Cervantes y Saavedra1 N) e3 c5 I% q+ G3 }
主  演 亚当·德赖弗 Adam Driver
4 p# t" j. E& t( Q+ h      欧嘉·柯瑞兰寇 Olga Kurylenko
. p8 a) ~8 n  M0 w, N$ E      乔纳森·普雷斯 Jonathan Pryce% V% L- Q% B9 ?. ?, O# s; a
      斯特兰·斯卡斯加德 Stellan Skarsg?rd. m  E/ _! x1 z* u2 L$ _
      奥斯卡·贾恩那达 óscar Jaenada% {9 l/ H" K! l% `
      杰森·沃特金斯 Jason Watkins" _) `* e6 B) \
      塞尔希·洛佩斯 Sergi López
& }" g8 d: ^) g& V/ m7 Q      詹迪·莫拉 Jordi Mollà
# I7 U* W+ P3 c4 H6 k      特瑞·吉列姆 Terry Gilliam
5 Y8 L+ y: Q  B2 |' U      霍威克·库区科利安 Hovik Keuchkerian
: z+ c: z0 d7 P  ~  f      阿尔维托·乔·李 Alberto Jo Lee5 T# t. L, o* L3 a6 B& S
      威廉·米勒 William Miller: \% _: @2 T5 O" J  K, G7 X% _
      萝西·德·帕尔马 Rossy de Palma0 H- x7 _# m5 i
      布鲁诺·塞维利亚 Bruno Sevilla# `% Z$ l1 s' C5 s6 b3 G3 F

/ y' T3 H1 L/ g+ x! c6 P# W9 v# w" F4 P* s, J  ~, K/ |0 A# z3 j+ b
标  签 西班牙 | 奇异 | 2018 | 英国 | 笑剧 | 美国 | 冒险 | 剧情
+ T& b8 W  V6 u3 T6 M# t5 c. P
$ T- R! o9 i& M# m/ d8 W4 N, s6 I简  介  4 H  q, N. \0 g1 U. `3 g& g
. n+ Z3 S9 n6 j! s0 f  n
  托比,一个愤世嫉俗的广告导演,发现自己堕入了一个现代西班牙鞋匠的荒谬空想中,他相信自己就是堂吉诃德。在他们越来越超现实的冒险进程中,托比被迫直面他 在青年时代拍摄的一部电影的悲剧性结果——这部电影永久地改变了一个西班牙小村落的希望和胡想。托比能抵偿并找回初心吗?堂吉诃德能在他的疯狂和行未到临的灭亡中幸存吗?恋爱能克服一切吗?4 x+ }, E2 x$ l( _! H
$ t' r" J! J- Q+ n8 ~; ^' R
获奖情况    R& g) u" ?" K1 h7 f

  o! u9 D5 T* F  第33届西班牙戈雅奖(2019)
* x* u% b# X/ C, U6 Z, P2 G5 {- p/ j7 H  最好艺术指导(提名)1 a: O8 U& n) X2 x8 }8 D
  最好建造人
5 R& _& x# I- y2 l" M  最好打扮设想(提名)! z  h1 F0 ^) J9 Y0 A5 T6 @8 S
  最好化装与发型
" o, b0 z% U0 Q/ c2 l$ Z! Z  最好原创歌曲(提名)
7 Z# [% L- w; Q4 p4 z% _
) {% G) s* D' c, O/ k2 ?% {
8 A& E7 e2 K. Q6 h7 C1 x, b" i
; N& a2 Z# R. P* Y! U
  1. Video
    ) U/ `& P0 d! t
  2. ID                                       : 1
    5 _# T8 L5 M/ q. U/ }
  3. Format                                   : AVC: n' W4 E! p/ l# _! {
  4. Format/Info                              : Advanced Video Codec
    5 n+ H7 `; c3 P9 ^9 l
  5. Format profile                           : <a href="/cdn-cgi/l/email-protection" class="__cf_email__" data-cfemail="074f6e606f474b332936">[email protected]</a>
      v. {  d. u0 ]1 {$ d4 h
  6. Format settings                          : CABAC / 5 Ref Frames  V* o- J; N, r
  7. Format settings, CABAC                   : Yes
    5 O8 I* P; R3 c" z5 }
  8. Format settings, ReFrames                : 5 frames: W+ C5 G2 v% Y4 Q/ m
  9. Codec ID                                 : V_MPEG4/ISO/AVC# G- c8 H( E- P8 s
  10. Duration                                 : 2 h 12 min0 [) _+ x1 {; `% v
  11. Bit rate                                 : 4 377 kb/s5 c# ~, M' @, z. e8 e
  12. Width                                    : 1 280 pixels7 S0 ?. G' i- ?3 c
  13. Height                                   : 536 pixels
      ?! R: P0 G" g
  14. Display aspect ratio                     : 2.40:1
    . q+ i& b' E% K. J3 r, c% t
  15. Frame rate mode                          : Constant. j3 d$ D8 {" B3 B* T( `4 b" V
  16. Frame rate                               : 23.976 (24000/1001) FPS
    $ t# T* ?* S  r" i! T, u! n
  17. Color space                              : YUV- I5 ]$ t' C1 b% P1 O6 k
  18. Chroma subsampling                       : 4:2:0# F) f& M* w! B! }0 d
  19. Bit depth                                : 8 bits& b7 c. I7 w9 {% _
  20. Scan type                                : Progressive
    $ _2 i2 f2 s- ^1 r2 a
  21. Bits/(Pixel*Frame)                       : 0.266- k' T7 u* a" Y  m. Z
  22. Stream size                              : 4.06 GiB (74%)0 u+ Q. s2 T3 T1 |
  23. Writing library                          : x264 core 157 r2970 5493be8
    - \* H! ?  v8 g$ s  Z4 q: `
  24. Encoding settings                        : cabac=1 / ref=5 / deblock=1:-3:-3 / analyse=0x3:0x113 / me=umh / subme=8 / psy=1 / psy_rd=1.00:0.00 / mixed_ref=1 / me_range=24 / chroma_me=1 / trellis=2 / 8x8dct=1 / cqm=0 / deadzone=21,11 / fast_pskip=1 / chroma_qp_offset=-2 / threads=17 / lookahead_threads=2 / sliced_threads=0 / nr=0 / decimate=1 / interlaced=0 / bluray_compat=0 / constrained_intra=0 / bframes=3 / b_pyramid=2 / b_adapt=2 / b_bias=0 / direct=3 / weightb=1 / open_gop=0 / weightp=2 / keyint=240 / keyint_min=24 / scenecut=40 / intra_refresh=0 / rc_lookahead=50 / rc=2pass / mbtree=1 / bitrate=4377 / ratetol=1.0 / qcomp=0.60 / qpmin=0 / qpmax=69 / qpstep=4 / cplxblur=20.0 / qblur=0.5 / ip_ratio=1.40 / aq=3:0.80
    ! J1 z; ]1 X7 v3 ?1 ~! T4 W
  25. Default                                  : Yes9 o/ z5 c6 H! y! d
  26. Forced                                   : No$ ]/ B6 p& Z1 Y/ n' U
  27. ) {- g7 I* W' \; t0 Z% m6 V( ?4 T0 n
  28. Audio9 k8 q' A9 m) B! G6 J
  29. ID                                       : 2
    5 @0 ?7 c  K; q$ l$ Q2 x0 a
  30. Format                                   : DTS
    ; J# U3 e* _' f# k3 `
  31. Format/Info                              : Digital Theater Systems9 `& A) q1 D# C: C; c
  32. Codec ID                                 : A_DTS- C* C/ K( i! q1 P- m! o% H
  33. Duration                                 : 2 h 12 min
    ' {' v1 ]4 s! N9 }, a. X% \- x
  34. Bit rate mode                            : Constant
    4 B$ K# O: Z8 V/ u: |: |
  35. Bit rate                                 : 1 509 kb/s  O  ]5 K  J# r- R1 Y
  36. Channel(s)                               : 6 channels
    ; J0 H8 y- W; f5 o7 B2 I& r! f
  37. Channel layout                           : C L R Ls Rs LFE
    1 s2 e# h2 Z* ]" T1 r" r
  38. Sampling rate                            : 48.0 kHz
    8 ]( e% e8 W* ~
  39. Frame rate                               : 93.750 FPS (512 SPF)
    & M) `7 W/ W, l# [: ~( a0 Z
  40. Bit depth                                : 24 bits
    ; T  [5 X, Y3 }# ^2 I6 i& E: _, |
  41. Compression mode                         : Lossy; s; P) N1 T: k0 K2 Z
  42. Stream size                              : 1.40 GiB (26%)$ r. p! o1 `3 X: @. U6 U" A9 F
  43. Language                                 : English
    . ?4 k. F0 W/ h  x
  44. Default                                  : Yes
    ; T/ J0 Y* F: W% _; C" L  f
  45. Forced                                   : No
    7 l: b% y% K# a) q( c3 b$ m

  46. 4 \( u: K( d" D* b5 o$ B
  47. Text #1
    : X' o- Y4 l0 b2 Y7 _+ o8 m
  48. ID                                       : 32 S* W7 u$ G! B3 C
  49. Format                                   : UTF-81 g* h1 `3 H4 b/ F* l) f
  50. Codec ID                                 : S_TEXT/UTF8
    . f7 S; E3 Z3 S6 n
  51. Codec ID/Info                            : UTF-8 Plain Text
    & c5 A' c1 T* `% I" a- A
  52. Duration                                 : 2 h 5 min( {: U8 p2 H9 d) @% e) n
  53. Bit rate                                 : 50 b/s3 N0 F/ h3 l- f7 Y
  54. Count of elements                        : 2100; j/ O( I% Z1 \) E
  55. Stream size                              : 46.2 KiB (0%)
    + n; B4 Z- ^& f7 b, X
  56. Language                                 : English
    & n7 T- _6 U2 y6 i
  57. Default                                  : No
    / O( u# l- q$ T# o
  58. Forced                                   : No) S0 B. J+ A9 b& x

  59. " D2 F: B. k& U8 [0 X8 C3 q/ m
  60. Text #2! j+ G& I4 w! T# n! m
  61. ID                                       : 4% c5 ~; n  @' P- k/ s
  62. Format                                   : UTF-8/ V- a! g! r# ?6 W/ {
  63. Codec ID                                 : S_TEXT/UTF8! B- ^; n( n% _. X# ^
  64. Codec ID/Info                            : UTF-8 Plain Text
    * P( \' N- J' Y! c
  65. Duration                                 : 2 h 7 min: ^/ Y# G) {4 y, u5 X3 M
  66. Bit rate                                 : 53 b/s
    9 w  D* R$ p1 u8 T0 F; _' Q
  67. Count of elements                        : 2301  b/ t3 J9 Q: X" P+ `( [3 t
  68. Stream size                              : 50.4 KiB (0%). _1 g0 U9 |, ^( ?& ^
  69. Title                                    : SDH4 Y7 S. r7 X, N. Q1 T, ]# u; e4 h
  70. Language                                 : English
    ! U! N0 x! `! L4 [0 P
  71. Default                                  : No2 L, Y# [; c  F. }! D+ x: |- G
  72. Forced                                   : No
    % k* m- o  {( Z+ [7 z$ t$ a* Y

  73. / M) d) K6 Q* G& B3 |( f$ q: o
  74. Menu$ u4 @: S3 {2 ?2 ?! r  K
  75. 00:00:00.000                             : en:Chapter 017 I9 T( w3 j6 S% a- b: y, U$ |
  76. 00:11:29.272                             : en:Chapter 02! V" P* H- t/ C/ X* K5 z# \4 R
  77. 00:23:22.818                             : en:Chapter 03
    6 P& w7 X. G* V. \  Q5 l' }
  78. 00:32:00.961                             : en:Chapter 04, F0 A% {' O! Z' s
  79. 00:40:59.791                             : en:Chapter 05% l1 b6 [4 b- u1 `! x
  80. 00:55:08.305                             : en:Chapter 06- y4 G( j7 t+ E
  81. 01:06:43.917                             : en:Chapter 07; y: G! @, A- h# E
  82. 01:17:12.628                             : en:Chapter 08
    4 q* c; U& J- g" y! t4 y( D7 R; s
  83. 01:26:07.788                             : en:Chapter 09
    5 G0 q# g9 F" b. f5 [. _
  84. 01:39:55.990                             : en:Chapter 10
    ( d- M+ r; P4 C# X: _
  85. 01:52:38.669                             : en:Chapter 11; J; ]4 p; p- C& G
  86. 02:06:48.100                             : en:Chapter 12
复制代码

. G% ^) `7 y" x, |9 M 这个汉子来自疯狂天下 The.Man.Who.Killed.Don.Quixote.2018.720p.BluRay.X264-AMIABLE 5.48GB-2.png $ C2 i* k: ]7 q
# H0 q' ?) z5 P/ y( k$ R' S
; c) N1 \: H3 |/ @: R

/ Z- Y! K7 _. `+ d* v6 y% J
! H' b. E6 s! ?0 e! ]* a4 k" ?5 ?# R9 I: c1 h: I6 \

$ D; a) l* h4 r% f
回复

使用道具 举报

级别:荣升主角 Lv.5

注册时间
2019-2-3
最后登录
2019-6-23
听众
7
收听
0
主题
0
蓝光币
175 枚
贡献
0 点
发表于 2019-6-10 17:01:52 | 显示全部楼层
楼主发贴辛苦了,谢谢楼主分享!我觉得中国高清电影网是注册对了!
回复

使用道具 举报

级别:专业龙套 Lv.4

注册时间
2018-9-21
最后登录
2019-6-25
听众
8
收听
0
主题
0
蓝光币
435 枚
贡献
0 点
QQ
发表于 2019-6-10 19:32:13 | 显示全部楼层
楼主发贴辛苦了,谢谢楼主分享!我觉得中国高清电影网是注册对了!
回复

使用道具 举报

 成长值: 385

级别:尊贵的会员

注册时间
2019-6-6
最后登录
2019-6-25
听众
4
收听
0
主题
0
蓝光币
38 枚
贡献
0 点
发表于 2019-6-10 20:02:55 | 显示全部楼层
中国重工业科幻开山即顶峰之作8 a3 ]# N5 T4 G7 I
用真心努力付出就有回报~~!!!
, j% N& [9 L' L% D等出了蓝光碟一定买一套支持~
回复

使用道具 举报

级别:群众演员 Lv.3

注册时间
2019-4-24
最后登录
2019-6-25
听众
5
收听
0
主题
0
蓝光币
35 枚
贡献
0 点
发表于 2019-6-12 08:23:20 | 显示全部楼层
楼主发贴辛苦了,谢谢楼主分享!我觉得中国高清电影网是注册对了!
回复

使用道具 举报

*滑动验证:
懒得打字嘛,点击右侧快捷回复 【右侧内容,后台自定义】
您需要登录后才可以回帖 登录 | 立即注册

本版积分规则

QQ|Archiver|手机版|小黑屋| 中国高清网 |网站地图

GMT+8, 2019-6-25 19:35 , Processed in 0.324759 second(s), 47 queries .

Powered by HDchina X3.4

Copyright 2017-2019©HDchina.All right reserved

返回顶部 联系我们