你所知道的4K资源这里全部都有 4K电影 | 4K视频 | 4K壁纸 | 4K MV 怎么播放4K视频 | 4K电视演示片

教你玩转4K私人与家庭影院存储 NAS组装 | 黑群辉 家庭/影院Nas论坛

4K家庭影院信号源与视频设备知识 4K蓝光高清播放机 - 那个品牌好? 4K投影机论坛 | 4K电视机论坛

手把手教你搭建属于自己的家庭影院 4K家庭影院案例 | 家庭影院音频 4K家庭影院论坛

查看: 181|回复: 1

[10bit.SDR] 冲出康普顿/再别康城 Straight.Outta.Compton.2015.DC.2160p.BluRay.x265.10bit.SDR.DTS-X.7.1-SWTYBLZ 31.00GB

[复制链接]

 成长值: 1670

级别:资源管理组

注册时间
2017-10-20
最后登录
2019-6-25
听众
0
收听
0
主题
78745
蓝光币
29104 枚
贡献
3070 点
发表于 2019-6-9 12:14:36 | 显示全部楼层 |阅读模式
冲出康普顿/再别康城 Straight.Outta.Compton.2015.DC.2160p.BluRay.x265.10bit.SDR.DTS-X.7.1-SWTYBLZ 31.00GB-1.png

译  名 冲出康普顿 / 再别康城
片  名 Straight Outta Compton
年  代 2015
产  地 美国
类  别 剧情 / 音乐 / 列传
语  言 英语
上映日期 2015-08-14(美国)
IMDb评分  7.9/10 from 165222 users
IMDb链接  http://www.imdb.com/title/tt1398426
豆瓣评分 7.7/10 from 10813 users
豆瓣链接 https://movie.douban.com/subject/3608742/
片  长 147分钟
导  演 F·加里·格雷 F. Gary Gray
编  剧 乔纳森·赫尔曼 Jonathan Herman / S·雷·利萨维治 S. Leigh Savidge / 艾伦·温库 Alan Wenkus / 安德丽亚·贝尔洛夫 Andrea Berloff
主  演 科里·霍金斯 Corey Hawkins
      杰森·米切尔 Jason Mitchell
      小奥谢拉·杰克逊 O'Shea Jackson Jr.
      阿尔迪斯·霍吉 Aldis Hodge
      保罗·吉亚玛提 Paul Giamatti
      凯斯·斯坦菲尔德 Keith Stanfield
      小尼尔·布朗 Neil Brown Jr.
      小马龙·耶茨 Marlon Yates Jr.
      马修·博兰 Matthew Boylan
      R·马科斯·泰勒 R. Marcos Taylor
      卡拉·帕特森 Carra Patterson
      亚历山德拉·希普 Alexandra Shipp
      科瑞·雷诺兹 Corey Reynolds


标  签 列传 | 音乐 | 美国 | 说唱 | 2015 | 黑帮 | 剧情 | 种族

简  介  

  1980年月中期,加州康普顿的陌头因犯罪、毒品、黑帮等题目成为美国最危险的地方之一,五个身世此地的年轻人:爱斯·库柏(小奥谢拉·杰克逊 O'Shea Jackson Jr. 饰)、MC Ren(阿尔迪斯·霍吉 Aldis Hodge 饰)、德瑞博士(科里·霍金斯 Cor ey Hawkins 饰)、DJ耶拉(小尼尔·布朗 Neil Brown Jr. 饰)、Eazy-E(杰森·米切尔 Jason Mitchell 饰)调集起来,组成了说唱组合N.W.A,将他们的长大履历转化成粗鲁间接的音乐,并借此向政府转达他们的抵挡心声。

获奖情况  

  第88届奥斯卡金像奖(2016)
  最好原创剧本(提名) 安德丽亚·贝尔洛夫 / 乔纳森·赫尔曼 / S·雷·利萨维治 / 艾伦·温库

  第22届美国演员工会奖(2016)
  电影奖 最好群戏(提名)

  第68届美国编剧工会奖(2016)
  电影奖 最好原创剧本(提名) 安德丽亚·贝尔洛夫 / 乔纳森·赫尔曼 / S·雷·利萨维治 / 艾伦·温库

  第27届美国制片野生会奖(2016)
  最好电影制片人奖(提名)

  第87届美国国家批评协会奖(2015)
  年度佳片

  第21届美国批评家挑选电影奖(2016)
  最好群戏(提名)

  第16届美国电影学会奖(2015)
  年度佳片

  第19届好莱坞电影奖(2015)
  最好冲破群戏 小奥谢拉·杰克逊 / 科里·霍金斯 / 杰森·米切尔



  1. Video
  2. ID                                       : 1
  3. Format                                   : HEVC
  4. Format/Info                              : High Efficiency Video Coding
  5. Format profile                           : Main <a href="/cdn-cgi/l/email-protection" class="__cf_email__" data-cfemail="6a5b5a2a265f445b">[email protected]</a>@High
  6. Codec ID                                 : V_MPEGH/ISO/HEVC
  7. Duration                                 : 2 h 46 min
  8. Bit rate                                 : 20.3 Mb/s
  9. Width                                    : 3 840 pixels
  10. Height                                   : 1 600 pixels
  11. Display aspect ratio                     : 2.40:1
  12. Frame rate mode                          : Constant
  13. Frame rate                               : 23.976 (24000/1001) FPS
  14. Color space                              : YUV
  15. Chroma subsampling                       : 4:2:0
  16. Bit depth                                : 10 bits
  17. Bits/(Pixel*Frame)                       : 0.138
  18. Stream size                              : 23.7 GiB (77%)
  19. Title                                    : Straight.Outta.Compton.2015.DC.2160p.BluRay.x265.10bit.SDR.DTS-X.7.1-SWTYBLZ
  20. Writing library                          : x265 3.0ed72af837053:[Windows][GCC 8.2.0][64 bit] 10bit
  21. Encoding settings                        : cpuid=1111039 / frame-threads=16 / numa-pools=44,44 / wpp / no-pmode / no-pme / no-psnr / no-ssim / log-level=2 / input-csp=1 / input-res=3840x1600 / interlace=0 / total-frames=239925 / level-idc=51 / high-tier=1 / uhd-bd=0 / ref=3 / no-allow-non-conformance / repeat-headers / annexb / aud / hrd / info / hash=0 / no-temporal-layers / no-open-gop / min-keyint=1 / keyint=24 / gop-lookahead=0 / bframes=4 / b-adapt=2 / b-pyramid / bframe-bias=0 / rc-lookahead=25 / lookahead-slices=4 / scenecut=40 / radl=0 / no-splice / no-intra-refresh / ctu=64 / min-cu-size=8 / no-rect / no-amp / max-tu-size=32 / tu-inter-depth=1 / tu-intra-depth=1 / limit-tu=0 / rdoq-level=0 / dynamic-rd=0.00 / no-ssim-rd / signhide / no-tskip / nr-intra=0 / nr-inter=0 / no-constrained-intra / strong-intra-smoothing / max-merge=2 / limit-refs=3 / no-limit-modes / me=1 / subme=2 / merange=57 / temporal-mvp / weightp / no-weightb / no-analyze-src-pics / deblock=0:0 / no-sao / no-sao-non-deblock / rd=3 / no-early-skip / rskip / no-fast-intra / no-tskip-fast / no-cu-lossless / no-b-intra / no-splitrd-skip / rdpenalty=0 / psy-rd=2.00 / psy-rdoq=0.00 / no-rd-refine / no-lossless / cbqpoffs=0 / crqpoffs=0 / rc=crf / crf=16.0 / qcomp=0.60 / qpstep=4 / stats-write=0 / stats-read=0 / vbv-maxrate=160000 / vbv-bufsize=160000 / vbv-init=0.9 / crf-max=0.0 / crf-min=0.0 / ipratio=1.40 / pbratio=1.30 / aq-mode=1 / aq-strength=1.00 / cutree / zone-count=0 / no-strict-cbr / qg-size=32 / no-rc-grain / qpmax=69 / qpmin=0 / no-const-vbv / sar=1 / overscan=0 / videoformat=5 / range=0 / colorprim=2 / transfer=2 / colormatrix=2 / chromaloc=0 / display-window=0 / max-cll=0,0 / min-luma=0 / max-luma=1023 / log2-max-poc-lsb=8 / vui-timing-info / vui-hrd-info / slices=1 / opt-qp-pps / opt-ref-list-length-pps / no-multi-pass-opt-rps / scenecut-bias=0.05 / no-opt-cu-delta-qp / no-aq-motion / no-hdr / no-hdr-opt / no-dhdr10-opt / no-idr-recovery-sei / analysis-reuse-level=5 / scale-factor=0 / refine-intra=0 / refine-inter=0 / refine-mv=0 / refine-ctu-distortion=0 / no-limit-sao / ctu-info=0 / no-lowpass-dct / refine-analysis-type=0 / copy-pic=1 / max-ausize-factor=1.0 / no-dynamic-refine / no-single-sei / no-hevc-aq / qp-adaptation-range=1.00
  22. Default                                  : Yes
  23. Forced                                   : No

  24. Audio #1
  25. ID                                       : 2
  26. Format                                   : DTS XLL X
  27. Format/Info                              : Digital Theater Systems
  28. Commercial name                          : DTS-HD Master Audio
  29. Codec ID                                 : A_DTS
  30. Duration                                 : 2 h 46 min
  31. Bit rate mode                            : Variable
  32. Bit rate                                 : 5 519 kb/s
  33. Channel(s)                               : 8 channels
  34. Channel(s)_Original                      : Object Based
  35. Channel layout                           : Object Based
  36. Sampling rate                            : 48.0 kHz
  37. Frame rate                               : 93.750 FPS (512 SPF)
  38. Bit depth                                : 24 bits
  39. Stream size                              : 6.43 GiB (21%)
  40. Title                                    : Straight.Outta.Compton.2015.DC.2160p.BluRay.x265.10bit.SDR.DTS-X.7.1-SWTYBLZ
  41. Language                                 : English
  42. Default                                  : Yes
  43. Forced                                   : No

  44. Audio #2
  45. ID                                       : 3
  46. Format                                   : AC-3
  47. Format/Info                              : Audio Coding 3
  48. Commercial name                          : Dolby Digital
  49. Codec ID                                 : A_AC3
  50. Duration                                 : 2 h 46 min
  51. Bit rate mode                            : Constant
  52. Bit rate                                 : 640 kb/s
  53. Channel(s)                               : 6 channels
  54. Channel layout                           : L R C LFE Ls Rs
  55. Sampling rate                            : 48.0 kHz
  56. Frame rate                               : 31.250 FPS (1536 SPF)
  57. Bit depth                                : 16 bits
  58. Compression mode                         : Lossy
  59. Stream size                              : 763 MiB (2%)
  60. Title                                    : Straight.Outta.Compton.2015.DC.2160p.BluRay.x265.10bit.SDR.DTS-X.7.1-SWTYBLZ
  61. Language                                 : English
  62. Service kind                             : Complete Main
  63. Default                                  : No
  64. Forced                                   : No

  65. Text #1
  66. ID                                       : 4
  67. Format                                   : UTF-8
  68. Codec ID                                 : S_TEXT/UTF8
  69. Codec ID/Info                            : UTF-8 Plain Text
  70. Duration                                 : 2 h 41 min
  71. Bit rate                                 : 82 b/s
  72. Count of elements                        : 2963
  73. Stream size                              : 97.3 KiB (0%)
  74. Title                                    : English-SRT
  75. Language                                 : English
  76. Default                                  : Yes
  77. Forced                                   : No

  78. Text #2
  79. ID                                       : 5
  80. Format                                   : PGS
  81. Muxing mode                              : zlib
  82. Codec ID                                 : S_HDMV/PGS
  83. Codec ID/Info                            : Picture based subtitle format used on BDs/HD-DVDs
  84. Duration                                 : 2 h 46 min
  85. Bit rate                                 : 71.7 kb/s
  86. Count of elements                        : 6084
  87. Stream size                              : 85.2 MiB (0%)
  88. Title                                    : English-PGS
  89. Language                                 : English
  90. Default                                  : No
  91. Forced                                   : No

  92. Text #3
  93. ID                                       : 6
  94. Format                                   : PGS
  95. Muxing mode                              : zlib
  96. Codec ID                                 : S_HDMV/PGS
  97. Codec ID/Info                            : Picture based subtitle format used on BDs/HD-DVDs
  98. Duration                                 : 2 h 46 min
  99. Bit rate                                 : 41.1 kb/s
  100. Count of elements                        : 4730
  101. Stream size                              : 49.0 MiB (0%)
  102. Title                                    : French-PGS
  103. Language                                 : French
  104. Default                                  : No
  105. Forced                                   : No

  106. Text #4
  107. ID                                       : 7
  108. Format                                   : PGS
  109. Muxing mode                              : zlib
  110. Codec ID                                 : S_HDMV/PGS
  111. Codec ID/Info                            : Picture based subtitle format used on BDs/HD-DVDs
  112. Duration                                 : 2 h 46 min
  113. Bit rate                                 : 65.3 kb/s
  114. Count of elements                        : 5163
  115. Stream size                              : 77.9 MiB (0%)
  116. Title                                    : German-PGS
  117. Language                                 : German
  118. Default                                  : No
  119. Forced                                   : No

  120. Text #5
  121. ID                                       : 8
  122. Format                                   : PGS
  123. Muxing mode                              : zlib
  124. Codec ID                                 : S_HDMV/PGS
  125. Codec ID/Info                            : Picture based subtitle format used on BDs/HD-DVDs
  126. Duration                                 : 2 h 46 min
  127. Bit rate                                 : 40.3 kb/s
  128. Count of elements                        : 3834
  129. Stream size                              : 48.1 MiB (0%)
  130. Title                                    : Dutch-PGS
  131. Language                                 : Dutch
  132. Default                                  : No
  133. Forced                                   : No

  134. Text #6
  135. ID                                       : 9
  136. Format                                   : PGS
  137. Muxing mode                              : zlib
  138. Codec ID                                 : S_HDMV/PGS
  139. Codec ID/Info                            : Picture based subtitle format used on BDs/HD-DVDs
  140. Duration                                 : 2 h 46 min
  141. Bit rate                                 : 49.3 kb/s
  142. Count of elements                        : 4070
  143. Stream size                              : 58.8 MiB (0%)
  144. Title                                    : Danish-PGS
  145. Language                                 : Danish
  146. Default                                  : No
  147. Forced                                   : No

  148. Text #7
  149. ID                                       : 10
  150. Format                                   : PGS
  151. Muxing mode                              : zlib
  152. Codec ID                                 : S_HDMV/PGS
  153. Codec ID/Info                            : Picture based subtitle format used on BDs/HD-DVDs
  154. Duration                                 : 2 h 46 min
  155. Bit rate                                 : 38.4 kb/s
  156. Count of elements                        : 3786
  157. Stream size                              : 45.7 MiB (0%)
  158. Title                                    : Finnish-PGS
  159. Language                                 : Finnish
  160. Default                                  : No
  161. Forced                                   : No

  162. Text #8
  163. ID                                       : 11
  164. Format                                   : PGS
  165. Muxing mode                              : zlib
  166. Codec ID                                 : S_HDMV/PGS
  167. Codec ID/Info                            : Picture based subtitle format used on BDs/HD-DVDs
  168. Duration                                 : 2 h 46 min
  169. Bit rate                                 : 57.7 kb/s
  170. Count of elements                        : 5207
  171. Stream size                              : 68.8 MiB (0%)
  172. Title                                    : Norwegian-PGS
  173. Language                                 : Norwegian
  174. Default                                  : No
  175. Forced                                   : No

  176. Text #9
  177. ID                                       : 12
  178. Format                                   : PGS
  179. Muxing mode                              : zlib
  180. Codec ID                                 : S_HDMV/PGS
  181. Codec ID/Info                            : Picture based subtitle format used on BDs/HD-DVDs
  182. Duration                                 : 2 h 46 min
  183. Bit rate                                 : 53.3 kb/s
  184. Count of elements                        : 4630
  185. Stream size                              : 63.6 MiB (0%)
  186. Title                                    : Swedish-PGS
  187. Language                                 : Swedish
  188. Default                                  : No
  189. Forced                                   : No

  190. Menu
  191. 00:00:00.000                             : en:Chapter 01
  192. 00:05:46.929                             : en:Chapter 02
  193. 00:09:54.635                             : en:Chapter 03
  194. 00:17:31.091                             : en:Chapter 04
  195. 00:26:33.675                             : en:Chapter 05
  196. 00:35:39.095                             : en:Chapter 06
  197. 00:47:28.011                             : en:Chapter 07
  198. 00:55:37.751                             : en:Chapter 08
  199. 01:04:41.210                             : en:Chapter 09
  200. 01:11:27.199                             : en:Chapter 10
  201. 01:18:59.901                             : en:Chapter 11
  202. 01:25:46.266                             : en:Chapter 12
  203. 01:33:55.296                             : en:Chapter 13
  204. 01:44:20.796                             : en:Chapter 14
  205. 01:54:02.418                             : en:Chapter 15
  206. 02:02:54.909                             : en:Chapter 16
  207. 02:16:10.787                             : en:Chapter 17
  208. 02:26:23.316                             : en:Chapter 18
  209. 02:33:05.968                             : en:Chapter 19
  210. 02:39:20.884                             : en:Chapter 20
复制代码

冲出康普顿/再别康城 Straight.Outta.Compton.2015.DC.2160p.BluRay.x265.10bit.SDR.DTS-X.7.1-SWTYBLZ 31.00GB-2.png 冲出康普顿/再别康城 Straight.Outta.Compton.2015.DC.2160p.BluRay.x265.10bit.SDR.DTS-X.7.1-SWTYBLZ 31.00GB-3.png 冲出康普顿/再别康城 Straight.Outta.Compton.2015.DC.2160p.BluRay.x265.10bit.SDR.DTS-X.7.1-SWTYBLZ 31.00GB-4.png 冲出康普顿/再别康城 Straight.Outta.Compton.2015.DC.2160p.BluRay.x265.10bit.SDR.DTS-X.7.1-SWTYBLZ 31.00GB-5.png 冲出康普顿/再别康城 Straight.Outta.Compton.2015.DC.2160p.BluRay.x265.10bit.SDR.DTS-X.7.1-SWTYBLZ 31.00GB-7.png






本帖隐藏的下载地址需要VIP会员才可阅读,您需要升级才可阅读,点击这里升级VIP

回复

使用道具 举报

级别:初级观众 Lv.1

注册时间
2019-6-11
最后登录
2019-6-11
听众
2
收听
0
主题
0
蓝光币
2 枚
贡献
0 点
发表于 2019-6-11 00:24:51 | 显示全部楼层
这部真的是好片子!
回复

使用道具 举报

*滑动验证:
懒得打字嘛,点击右侧快捷回复 【右侧内容,后台自定义】
您需要登录后才可以回帖 登录 | 立即注册

本版积分规则

QQ|Archiver|手机版|小黑屋| 中国高清网 |网站地图

GMT+8, 2019-6-25 20:25 , Processed in 0.368785 second(s), 46 queries .

Powered by HDchina X3.4

Copyright 2017-2019©HDchina.All right reserved

返回顶部 联系我们