你所知道的4K资源这里全部都有 4K电影 | 4K视频 | 4K壁纸 | 4K MV 怎么播放4K视频 | 4K电视演示片

教你玩转4K私人与家庭影院存储 NAS组装 | 黑群辉 家庭/影院Nas论坛

4K家庭影院信号源与视频设备知识 4K蓝光高清播放机 - 那个品牌好? 4K投影机论坛 | 4K电视机论坛

手把手教你搭建属于自己的家庭影院 4K家庭影院案例 | 家庭影院音频 4K家庭影院论坛

查看: 86|回复: 2

[剧情片] 天外横财/梅尔文与霍华德 Melvin.and.Howard.1980.720p.BluRay.x264-PSYCHD 5.46GB

[复制链接]

 成长值: 1670

级别:资源管理组

注册时间
2017-10-20
最后登录
2019-6-25
听众
0
收听
0
主题
78745
蓝光币
29104 枚
贡献
3070 点
发表于 2019-6-9 11:49:10 | 显示全部楼层 |阅读模式
天外横财/梅尔文与霍华德 Melvin.and.Howard.1980.720p.BluRay.x264-PSYCHD 5.46GB-1.png
9 Z: O- H0 L/ W( H1 n
4 M, Q+ N  _# \+ e! u5 s译  名 天外横财 / 梅尔文与霍华德 / 梅尔文和霍华德% Y, n3 E- z; U$ P8 o# T
片  名 Melvin and Howard# ?7 i% x" g% u, A. F' r9 {! u  v
年  代 1980
7 o( I  G: ~/ ~产  地 美国
0 |/ P7 Z/ [, h9 p; K. i- i+ e类  别 剧情 / 笑剧
: X0 a* \9 {# @  Y9 W$ g. h/ Z语  言 英语1 p' u+ Y: V# y6 ^
上映日期 1980-09-19(美国): G+ T6 D% D; h, d* R- \' f
IMDb评分  6.9/10 from 3982 users; x4 d: N' d% [
IMDb链接  http://www.imdb.com/title/tt0081150! n  ^! v3 h9 X1 K8 R" [+ k
豆瓣评分 0/10 from 0 users
+ ~. O$ _! [. H1 p) a  q/ H9 J+ t: M豆瓣链接 https://movie.douban.com/subject/1300893/" e" T2 _+ |% O# C2 K. D
片  长 95分钟
. A5 D. ~- u/ V( \导  演 乔纳森·戴米 Jonathan Demme) @$ |6 |( g; \3 ]# r4 B
编  剧 博·古德曼 Bo Goldman- M+ S/ C/ K; N  i4 G
主  演 杰森·罗巴兹 Jason Robards- I0 j3 j+ K3 O/ h4 Q% F
      保罗·勒马特 Paul Le Mat
/ T; S7 f5 p% t; Z$ Y+ s% X  F6 r      玛丽·斯汀伯根 Mary Steenburgen
9 L1 Z2 U1 h, z      Elizabeth Cheshire8 }) S, z% s+ J, O' i
      Chip Taylor2 s0 s* ?: P0 o1 U/ I
      Melvin E. Dummar4 x9 B+ Q1 a2 f# d
      Michael J. Pollard
* C8 E$ Q. x7 J      Denise Galik( E  L) z: Q& K- Q, u

4 L* j6 ]$ Y2 b4 W9 `9 d9 Q: X6 _) M4 k% d6 V" D
标  签 美国 | 笑剧 | 1980 | 美国电影 | 奥斯卡最好女配角 | 剧情 | 乔纳森·戴米 | MarySteenburgen
. A0 S5 M* c% f& p. y7 ]
0 t4 F( ~/ U# W9 o2 Y简  介  
7 J; K5 q& |' v2 U! o9 b6 K
8 D% ?6 f+ c- M$ O: V( v. l" t  梅尔文·达默是个汽车加油站的工人,他心地善良,乐于助人,但却是个彻彻底底的失利者:背运,不切现实,还丢了工作,妻子也和他离了婚。一天早晨,梅尔文在公路上看到一个行动蹒跚、行动未便的老人,本来老人的摩托车出了故障,梅尔文便好心让他搭乘自己的汽车。老人宣称自己是霍华德·休斯,梅尔文听说过这本性情怪僻的豪富翁,但他对此并不相信,只是一笑置之。梅尔文将老人送到了拉斯维加斯,还将自己身上两角五分钱借给了他。梅尔文没有想到的是,霍华德·休斯立下了遗言,将一亿五千六百万美圆的财富留给了他。妻子也重新回到了他身旁。( o" T( _" H6 e1 {! b4 q3 g
6 ~/ |" b# |# F
获奖情况  ! |" V( x( K2 T- y' f

* p8 i0 [! L. q1 H7 v  第53届奥斯卡金像奖(1981)
% T4 S4 x" r* K  最好男配角(提名) 杰森·罗巴兹# ?7 q/ @3 W. G8 K9 v
  最好女配角 玛丽·斯汀伯根6 @( T8 y. h2 V& z- j; e+ M* d) s
  最好原创剧本 博·古德曼: {8 D/ V% ?* ]  l, q

1 ~1 I4 `8 v( T  第37届威尼斯电影节(1980)
: @8 ?9 D% Q1 Y1 A6 u* ~/ O5 B8 V  主比赛单元 金狮奖 (提名) 乔纳森·戴米& D  K6 [0 Y1 |8 C3 H& Y
0 k) S/ K$ P0 C* y8 [+ q
  Q9 s9 C- n& ]$ `6 k
# c% G  ~5 K$ c3 [) ?
  1. Video4 c9 ^) a& ]9 \  W" T
  2. ID                                       : 1, E6 A0 W" c; F# f, L# T1 v
  3. Format                                   : AVC. C% W9 H* r6 F+ c
  4. Format/Info                              : Advanced Video Codec) I' t# L, z4 j4 K$ {4 S8 H1 `
  5. Format profile                           : <a href="/cdn-cgi/l/email-protection" class="__cf_email__" data-cfemail="c58daca2ad8589f1ebf4">[email protected]</a>
    1 [* ~- v2 I6 |/ B
  6. Format settings                          : CABAC / 5 Ref Frames
    ! S! W, W* V: n$ i* h: u/ k5 h/ }( b
  7. Format settings, CABAC                   : Yes* Q! b% N0 e1 F( m% R
  8. Format settings, ReFrames                : 5 frames
    3 m! y% t! x! Z7 S) ]$ ^6 W! D! i" z
  9. Codec ID                                 : V_MPEG4/ISO/AVC
    0 C* o' W# u, A4 k) W) B* p
  10. Duration                                 : 1 h 34 min2 Q4 D5 X  K+ y
  11. Bit rate                                 : 6 747 kb/s
    ) R( X. O$ C. P& ]- g7 F1 h
  12. Width                                    : 1 280 pixels
    & v0 o, G- F- W/ U/ }: ~/ U
  13. Height                                   : 696 pixels6 ]' r2 {8 p6 U; ?" Z! n8 N
  14. Display aspect ratio                     : 1.85:1
    : Q0 W! n- [8 h- |! N, P, |7 H5 w  i6 y
  15. Frame rate mode                          : Constant
    ) [8 o9 \# q- u8 |. y0 k9 \2 R  e; h
  16. Frame rate                               : 23.976 (24000/1001) FPS
    9 ]+ k1 a2 ]& N% w' U( J, O# `
  17. Color space                              : YUV
    $ H1 S$ c! B* `! k
  18. Chroma subsampling                       : 4:2:0, Q& F7 W( e9 A" q
  19. Bit depth                                : 8 bits
    8 J9 ~, W, n8 }* T
  20. Scan type                                : Progressive# t) c7 T8 R4 K8 Y' J) I
  21. Bits/(Pixel*Frame)                       : 0.316
    " _2 ]+ Z4 x" S: [6 \9 f
  22. Stream size                              : 4.46 GiB (82%)1 p' k, N# i( {
  23. Writing library                          : x264 core 157 r2970 5493be89 [6 u" |  D1 t6 A0 l" v8 H
  24. Encoding settings                        : cabac=1 / ref=5 / deblock=1:-3:-3 / analyse=0x3:0x113 / me=umh / subme=8 / psy=1 / psy_rd=1.10:0.00 / mixed_ref=1 / me_range=24 / chroma_me=1 / trellis=2 / 8x8dct=1 / cqm=0 / deadzone=21,11 / fast_pskip=1 / chroma_qp_offset=-2 / threads=22 / lookahead_threads=3 / sliced_threads=0 / nr=0 / decimate=1 / interlaced=0 / bluray_compat=0 / constrained_intra=0 / bframes=3 / b_pyramid=2 / b_adapt=2 / b_bias=0 / direct=3 / weightb=1 / open_gop=0 / weightp=2 / keyint=240 / keyint_min=24 / scenecut=40 / intra_refresh=0 / rc_lookahead=50 / rc=2pass / mbtree=1 / bitrate=6747 / ratetol=1.0 / qcomp=0.60 / qpmin=0 / qpmax=69 / qpstep=4 / cplxblur=20.0 / qblur=0.5 / ip_ratio=1.40 / aq=3:0.70' F- M1 K0 ^! B  E
  25. Default                                  : Yes! v7 b9 P# `1 D/ ^6 Q2 M$ M
  26. Forced                                   : No
    1 Y0 n. p* ?: \7 O& S
  27. ; M' s# _5 W2 ^
  28. Audio* B* X" v2 t( ]" F( q. f
  29. ID                                       : 23 y( u- ]7 y% e0 ~! ~' u/ D
  30. Format                                   : DTS
    , T+ y5 U8 d& P3 N
  31. Format/Info                              : Digital Theater Systems5 {' c9 Y: z2 V; j9 u* }+ |* R
  32. Codec ID                                 : A_DTS
    9 I( z* Q. ~% a4 Z- _5 V" u
  33. Duration                                 : 1 h 34 min  `; Y& _/ w# l: W$ H( Q8 v& O
  34. Bit rate mode                            : Constant
    ) ~" q5 {$ c. f, U3 h
  35. Bit rate                                 : 1 509 kb/s* V5 ]' H- U! `
  36. Channel(s)                               : 2 channels/ W0 b2 i$ m8 G+ j! j) o$ }2 d
  37. Channel layout                           : L R( ]$ p0 G6 h4 C
  38. Sampling rate                            : 48.0 kHz
    - H* `& ^0 I; K: l- s
  39. Frame rate                               : 93.750 FPS (512 SPF)8 ]+ J1 m$ S% C% b- ?; b" q
  40. Bit depth                                : 24 bits( f1 ]* B+ l; [" f2 i, [
  41. Compression mode                         : Lossy4 j4 m' N. I/ j
  42. Stream size                              : 1 022 MiB (18%)/ |) N* m% K( n2 s& \
  43. Language                                 : English* l3 B* n3 m4 k$ K  A! N, V
  44. Default                                  : Yes1 ?2 J! m2 e# G7 C0 }# V  _7 n
  45. Forced                                   : No9 ^1 P# l3 T1 o4 {# Z' |
  46. 6 _) T$ Z2 G$ G& c8 v! t3 T
  47. Text #1# V' N! A$ L+ N( I/ H7 @$ w% T; r6 E
  48. ID                                       : 3
    % I  V8 ^7 d+ V4 [
  49. Format                                   : UTF-87 A& S5 I5 N+ S1 f/ v( l
  50. Codec ID                                 : S_TEXT/UTF80 ^9 R8 O* X4 A, R% {
  51. Codec ID/Info                            : UTF-8 Plain Text7 T+ K# I. F* [
  52. Duration                                 : 1 h 30 min1 h( T9 n2 U6 @
  53. Bit rate                                 : 66 b/s
    2 b! m7 s0 f( V! W$ {
  54. Count of elements                        : 1129
    9 w$ m+ q! t. l" H) L& z" Y
  55. Stream size                              : 44.2 KiB (0%)* ~* c3 n1 T  j4 m' \& J
  56. Language                                 : English1 J# M+ H/ F( K6 k. e
  57. Default                                  : No  V, F1 V$ Y3 ~% A# Z& V
  58. Forced                                   : No" k( S/ F  ]" C7 ~6 u9 |8 \

  59. 0 B) O6 x- U0 W0 y1 R2 g% \
  60. Text #23 h1 f2 e- z0 o# ?, t) `6 i. T, a
  61. ID                                       : 4
    $ w; D0 _% i& a* A" o- w1 s
  62. Format                                   : UTF-88 A7 ?( d; k. r$ H" g5 j) e
  63. Codec ID                                 : S_TEXT/UTF8
    & A# h' F, I( j6 I
  64. Codec ID/Info                            : UTF-8 Plain Text
    2 q: c5 [) @# O3 b* J0 _. R+ U8 K
  65. Duration                                 : 1 h 31 min  ~$ l" s, w2 x4 V$ I7 {' F2 m
  66. Bit rate                                 : 74 b/s6 e. H% Q, G9 @) ^# E
  67. Count of elements                        : 1249
    5 e  P, n3 U! c" V. }
  68. Stream size                              : 49.7 KiB (0%)
    ! `' ?5 W& \1 A7 m" N  C. s2 a
  69. Title                                    : SDH
    1 t' V" M6 f2 i8 F6 f4 D' v
  70. Language                                 : English, T8 K. K  X& j( Y  K- S4 W+ ]
  71. Default                                  : No
    8 P0 Y0 D$ c5 S" S% I- d
  72. Forced                                   : No6 R" @9 g! u! }1 E* h% x" \; T9 M

  73. + p) Z# ]5 E) o# A( F+ Z: }+ L4 n
  74. Menu
    # z+ L) r% t' h) Y  j
  75. 00:00:00.000                             : en:Chapter 01$ Z$ {8 [8 F1 a, |$ z
  76. 00:03:58.905                             : en:Chapter 02' Z( ]9 N" T' S* B+ ]1 p3 c: K
  77. 00:08:06.611                             : en:Chapter 03
    * H) _( b) v' W  ]9 c, @; x
  78. 00:13:33.062                             : en:Chapter 04' A6 m/ t. C, L* c- f7 D- A7 ?4 s
  79. 00:15:33.975                             : en:Chapter 05
    * K8 q6 q$ B: Y" n9 U
  80. 00:17:20.873                             : en:Chapter 06
    ( Z  o7 o3 |6 Y* C' C
  81. 00:19:29.335                             : en:Chapter 07
    + k( L( X' I: p% _
  82. 00:23:41.128                             : en:Chapter 08
    . Q* s, C0 H& A5 B3 G
  83. 00:26:10.152                             : en:Chapter 09
    : M/ b; O$ a; X' X" Y5 W6 q
  84. 00:30:16.565                             : en:Chapter 10' [+ d- L6 j7 z1 n% }5 |
  85. 00:32:20.897                             : en:Chapter 11, G# ^, B0 u3 D* I
  86. 00:36:17.884                             : en:Chapter 12
    & H& `; E3 J4 b1 \& e% b
  87. 00:41:45.294                             : en:Chapter 13
    ( C" w$ F1 v3 j$ o1 U6 d. n
  88. 00:47:49.700                             : en:Chapter 14) ^) g. n8 k$ n$ Q
  89. 00:55:02.007                             : en:Chapter 15
    + L2 W% I1 q, s% s* o, D
  90. 01:00:34.172                             : en:Chapter 163 x% N% z* E( t& ]) a! e& f6 Y. C
  91. 01:07:07.774                             : en:Chapter 17
    . c. ^; p4 l9 M6 {" h9 U
  92. 01:10:28.641                             : en:Chapter 18" r3 w% L: ]/ ~1 X
  93. 01:13:24.150                             : en:Chapter 19: ^$ X0 R8 s. j- y& D
  94. 01:16:21.619                             : en:Chapter 20+ k# s1 k' _3 I( J- P
  95. 01:19:11.121                             : en:Chapter 21
    ( U$ Q& C% N  ]* P/ p3 M8 l
  96. 01:21:30.969                             : en:Chapter 22
    2 ]* C+ M+ ]/ @: Y+ z
  97. 01:26:09.581                             : en:Chapter 237 J2 @) t: b( {% q
  98. 01:31:11.633                             : en:Chapter 24
复制代码

3 P, g1 J$ I" y6 p  M
( I, F+ b' Y8 i6 d( D
& b( v6 U0 b- {8 w' x% o% U* [. ~2 X% d; J" C9 V
' R+ L0 Q7 ~* Z' v, X

( C2 v4 h& J$ z9 W5 |
! `5 k- U% m! J$ V
9 D. W9 `6 n4 g* E. }
回复

使用道具 举报

级别:荣升主角 Lv.5

注册时间
2019-2-3
最后登录
2019-6-23
听众
7
收听
0
主题
0
蓝光币
175 枚
贡献
0 点
发表于 2019-6-9 12:10:10 | 显示全部楼层
楼主发贴辛苦了,谢谢楼主分享!我觉得中国高清电影网是注册对了!
回复

使用道具 举报

级别:群众演员 Lv.3

注册时间
2019-4-24
最后登录
2019-6-25
听众
5
收听
0
主题
0
蓝光币
35 枚
贡献
0 点
发表于 2019-6-12 08:24:50 | 显示全部楼层

, |, l' Q5 k9 I+ f. Q* |' f; S楼主太厉害了!楼主,电影应该很好看我觉得中国高清电影网真是个好地方!
回复

使用道具 举报

*滑动验证:
懒得打字嘛,点击右侧快捷回复 【右侧内容,后台自定义】
您需要登录后才可以回帖 登录 | 立即注册

本版积分规则

QQ|Archiver|手机版|小黑屋| 中国高清网 |网站地图

GMT+8, 2019-6-25 20:22 , Processed in 0.315883 second(s), 46 queries .

Powered by HDchina X3.4

Copyright 2017-2019©HDchina.All right reserved

返回顶部 联系我们