你所知道的4K资源这里全部都有 4K电影 | 4K视频 | 4K壁纸 | 4K MV 怎么播放4K视频 | 4K电视演示片

教你玩转4K私人与家庭影院存储 NAS组装 | 黑群辉 家庭/影院Nas论坛

4K家庭影院信号源与视频设备知识 4K蓝光高清播放机 - 那个品牌好? 4K投影机论坛 | 4K电视机论坛

手把手教你搭建属于自己的家庭影院 4K家庭影院案例 | 家庭影院音频 4K家庭影院论坛

查看: 107|回复: 1

[剧情片] 百分之一 Outlaws.2017.720p.BluRay.x264-JustWatch 4.37GB

[复制链接]

 成长值: 1670

级别:资源管理组

注册时间
2017-10-20
最后登录
2019-6-25
听众
0
收听
0
主题
78745
蓝光币
29088 枚
贡献
3070 点
发表于 2019-6-9 11:31:36 | 显示全部楼层 |阅读模式
百分之一 Outlaws.2017.720p.BluRay.x264-JustWatch 4.37GB-1.png
* S4 ~  V& L4 C" z& S. G& P, R; v8 m' `
译  名 百分之一 / Outlaws
5 v# B7 Q; G6 ?4 n片  名 1%2 y3 Q! @) a) J
年  代 2017+ B- u$ C/ P9 r6 e6 P6 l
产  地 澳大利亚  ]8 c5 Y$ L0 d, l
类  别 剧情 / 犯罪
- X) c! r# R7 Y8 @7 \2 W语  言 英语
' D, H0 B8 E  o$ E% q- \上映日期 2019-02-01(美国)
2 {% S2 z- k3 c6 @- [& ^% sIMDb评分  5.5/10 from 404 users% ^, J3 [' G8 T1 x
IMDb链接  http://www.imdb.com/title/tt63017129 q0 W4 a* G$ z5 ^2 K5 p8 }6 j
豆瓣评分 0/10 from 0 users" X, J2 O5 Y1 K+ b( N
豆瓣链接 https://movie.douban.com/subject/27073253/
( h. G6 @% I# A- A; V片  长 92分钟
( w, \' ^& D  U4 S8 g; i导  演 斯蒂芬·麦卡勒姆 Stephen McCallum$ _: T( q8 c: ?, w$ U
编  剧 马特·纳夫莱 Matt Nable
4 Y3 h& {! ?" F- f主  演 阿比·丽 Abbey Lee' g- Q2 G5 ]; B3 O/ [
      马特·纳夫莱 Matt Nable
0 `4 _+ u( L) g      瑞安·柯尔 Ryan Corr, J6 S- o3 y" P; S1 y6 W
      萨姆·帕尔森森 Sam Parsonson
" z4 g7 C$ B* v4 M      Eddie Baroo* j$ D; _5 f" v  L7 V
( _3 u8 z! q% g* o7 E
5 }* ?; E$ b$ J! k0 J% I
标  签 2017 | 美国 | 犯罪 | 电影 | 剧情 | LFF | BFI
/ v. U* ~- y/ G$ X4 b: p2 t4 s1 F. A0 [% [# b+ N1 w3 W# \
简  介  4 W3 [- \! i* ]& A) L

9 J) Q: G- L! [6 y# b  1% is set within the primal underworld of outlaw motorcycle club gangs. It follows the heir to the throne of a motorcycle club who has to betray his president to save his brother's life.6 G, ~0 y4 ^" M9 r9 D
/ D* j- E+ @. m6 D( V
  1. Video
    ' E9 L5 b; i# I
  2. ID                                       : 1- v* H# t5 s+ ]0 Q8 \+ N. h3 B1 U4 t
  3. Format                                   : AVC
    ' W0 J2 W* V# N1 \/ U; f, z9 |
  4. Format/Info                              : Advanced Video Codec
    $ h4 a) ?' `, L7 ^, {, q) Q$ ]
  5. Format profile                           : <a href="/cdn-cgi/l/email-protection" class="__cf_email__" data-cfemail="e3ab8a848ba3afd7cdd2">[email protected]</a>. }0 g) I/ r3 i: d4 Q' @
  6. Format settings                          : CABAC / 5 Ref Frames
    0 ?; e1 X% I" A4 }3 x5 W! j
  7. Format settings, CABAC                   : Yes/ S) u/ L7 }! p  [! D, x* t
  8. Format settings, ReFrames                : 5 frames
    3 R' t% i, q& ~+ x0 Q8 H
  9. Codec ID                                 : V_MPEG4/ISO/AVC0 Y! p' b1 q$ z2 E1 r
  10. Duration                                 : 1 h 33 min
    ( x$ s3 p1 o) B- T6 C' R/ D6 k
  11. Bit rate                                 : 5 198 kb/s9 q5 x' ^2 n$ R8 s  d1 t! m4 C
  12. Width                                    : 1 280 pixels
    5 j- s. q4 H- z$ g; D
  13. Height                                   : 536 pixels
    " d" i: f3 l4 Z1 D9 B3 ^
  14. Display aspect ratio                     : 2.40:1
    2 |9 p$ n8 a4 Z2 T+ c
  15. Frame rate mode                          : Constant
    1 E! x% J/ r- p. N
  16. Frame rate                               : 23.976 (24000/1001) FPS1 Q3 u! ~( C. R) c8 S! I0 p
  17. Color space                              : YUV
    ; {  n# z( W: j
  18. Chroma subsampling                       : 4:2:08 m- K) M. W  k, o
  19. Bit depth                                : 8 bits* B% `3 Z  ~/ [) _: J5 V; x4 q( H
  20. Scan type                                : Progressive
    6 i3 i+ f& x' M! k
  21. Bits/(Pixel*Frame)                       : 0.3162 x: E; C9 Y& a
  22. Stream size                              : 3.30 GiB (76%)( r. n' e- ^+ r" g
  23. Writing library                          : x264 core 157 r2969 d4099dd/ q; X% L8 H& Y% T. V$ K
  24. Encoding settings                        : cabac=1 / ref=5 / deblock=1:-2:-2 / analyse=0x3:0x113 / me=umh / subme=8 / psy=1 / psy_rd=1.00:0.00 / mixed_ref=1 / me_range=16 / chroma_me=1 / trellis=2 / 8x8dct=1 / cqm=0 / deadzone=21,11 / fast_pskip=1 / chroma_qp_offset=-2 / threads=17 / lookahead_threads=2 / sliced_threads=0 / nr=0 / decimate=1 / interlaced=0 / bluray_compat=0 / constrained_intra=0 / bframes=3 / b_pyramid=2 / b_adapt=2 / b_bias=0 / direct=3 / weightb=1 / open_gop=0 / weightp=2 / keyint=240 / keyint_min=24 / scenecut=40 / intra_refresh=0 / rc_lookahead=50 / rc=2pass / mbtree=1 / bitrate=5198 / ratetol=1.0 / qcomp=0.60 / qpmin=0 / qpmax=69 / qpstep=4 / cplxblur=20.0 / qblur=0.5 / ip_ratio=1.40 / aq=1:1.006 |0 I0 S" K2 i) N: X4 l: ^7 m
  25. Language                                 : English
    8 U+ |+ N. W' v: S1 b" [
  26. Default                                  : Yes" d7 |+ v2 w7 r# \
  27. Forced                                   : No; z5 D' V6 K, L3 s3 M
  28. 4 T# v: V! y$ t. m. I$ g( N# l
  29. Audio
    0 j3 @; V4 `- E( g* i/ T
  30. ID                                       : 26 }2 J* j$ T) y4 e9 p
  31. Format                                   : DTS! F$ x, r9 J" R5 r
  32. Format/Info                              : Digital Theater Systems9 _; V$ ]# h9 n, [
  33. Codec ID                                 : A_DTS& H, z9 O$ o/ \: g# w* I, R8 m
  34. Duration                                 : 1 h 33 min
    ; _! [( F# U2 ?9 E5 X/ _9 {
  35. Bit rate mode                            : Constant$ R3 ]$ _$ k; K! I/ ~# M
  36. Bit rate                                 : 1 509 kb/s/ G; a( M2 W; z2 W7 `
  37. Channel(s)                               : 6 channels
    ( ?& f8 U9 s7 [: n( b: p6 h8 X
  38. Channel layout                           : C L R Ls Rs LFE
    0 l& |) E) _% O0 P) p7 h/ P# k
  39. Sampling rate                            : 48.0 kHz$ n( l) J8 z, u( W0 T' i
  40. Frame rate                               : 93.750 FPS (512 SPF)
    ' n2 a8 ]6 G5 h, \* }5 D
  41. Bit depth                                : 24 bits
    8 P1 r# o$ W! |* b2 s
  42. Compression mode                         : Lossy
    # u" p5 C, m/ `2 r- D
  43. Stream size                              : 1 007 MiB (22%); _' i: t# a( l
  44. Language                                 : English
    % ~/ n4 z: C  k( h$ Q
  45. Default                                  : Yes
    2 V- G4 y. F. ?7 H# u
  46. Forced                                   : No$ }5 u7 l5 Y. K: t# H/ ~
  47. ! o& @, S- G! y) }; A. I0 U$ b
  48. Menu3 Z( s* q: G) B$ g6 F7 g$ R1 N) @
  49. 00:00:00.000                             : en:00:00:00.000
    ' U' Y/ ~- f8 c) \4 ?+ d, x
  50. 00:08:57.120                             : en:00:08:57.120
    . e. j! E4 E3 q& i
  51. 00:15:32.598                             : en:00:15:32.598
    ( K; W/ W/ i/ J; D( D& r( K8 r
  52. 00:23:15.894                             : en:00:23:15.894
    1 L( X- I9 ]* G) j* g0 L7 K( R
  53. 00:34:10.298                             : en:00:34:10.2985 t3 i! |: q7 p! e4 u
  54. 00:40:16.706                             : en:00:40:16.706# J4 V. T% T) X
  55. 00:48:10.679                             : en:00:48:10.679
    1 Q; {, J' v& v" n) G2 f
  56. 00:55:20.859                             : en:00:55:20.859% E/ Y9 Z2 n! G! U2 h
  57. 01:04:13.933                             : en:01:04:13.9332 g5 ]+ ]7 `1 {- P8 Y8 b
  58. 01:12:25.132                             : en:01:12:25.132
    : C7 L4 i, j; d8 E1 \
  59. 01:25:50.103                             : en:01:25:50.103
    & ~, b+ I1 w% G% n: N
  60. 01:28:07.240                             : en:01:28:07.240
复制代码

( R6 s% Z4 M1 Z$ B. n. p 百分之一 Outlaws.2017.720p.BluRay.x264-JustWatch 4.37GB-2.png 6 i3 _7 ^# d  l2 M1 s

( H+ {: I5 l, }8 P3 H/ Z( [! P4 s) q- b' _5 K0 L( x
2 t% N; k# W8 A% C, }, d; B
9 M/ X/ H; e" z  B0 Z

' Q+ n) a2 W/ t5 s7 W
回复

使用道具 举报

级别:群众演员 Lv.3

注册时间
2019-4-24
最后登录
2019-6-25
听众
5
收听
0
主题
0
蓝光币
35 枚
贡献
0 点
发表于 2019-6-12 08:25:23 | 显示全部楼层
楼主发贴辛苦了,谢谢楼主分享!我觉得中国高清电影网是注册对了!
回复

使用道具 举报

*滑动验证:
懒得打字嘛,点击右侧快捷回复 【右侧内容,后台自定义】
您需要登录后才可以回帖 登录 | 立即注册

本版积分规则

QQ|Archiver|手机版|小黑屋| 中国高清网 |网站地图

GMT+8, 2019-6-25 19:45 , Processed in 0.272881 second(s), 46 queries .

Powered by HDchina X3.4

Copyright 2017-2019©HDchina.All right reserved

返回顶部 联系我们