你所知道的4K资源这里全部都有 4K电影 | 4K视频 | 4K壁纸 | 4K MV 怎么播放4K视频 | 4K电视演示片

教你玩转4K私人与家庭影院存储 NAS组装 | 黑群辉 家庭/影院Nas论坛

4K家庭影院信号源与视频设备知识 4K蓝光高清播放机 - 那个品牌好? 4K投影机论坛 | 4K电视机论坛

手把手教你搭建属于自己的家庭影院 4K家庭影院案例 | 家庭影院音频 4K家庭影院论坛

查看: 258|回复: 2

[动作片] 决战猩球/人猿星球5 Battle.For.The.Planet.Of.The.Apes.1973.1080p.BluRay.x264-CLASSiC 7.93GB

[复制链接]

 成长值: 1670

级别:资源管理组

注册时间
2017-10-20
最后登录
2019-6-25
听众
0
收听
0
主题
78745
蓝光币
29104 枚
贡献
3070 点
发表于 2019-6-8 22:33:32 | 显示全部楼层 |阅读模式
决战猩球/人猿星球5 Battle.For.The.Planet.Of.The.Apes.1973.1080p.BluRay.x264-CLASSiC 7.93GB-1.png

译  名 决战猩球 / 人猿星球5
片  名 Battle for the Planet of the Apes
年  代 1973
产  地 美国
类  别 行动 / 科幻
语  言 英语
上映日期 1973-06-15
IMDb评分  5.5/10 from 26919 users
IMDb链接  http://www.imdb.com/title/tt0069768
豆瓣评分 6.5/10 from 3563 users
豆瓣链接 https://movie.douban.com/subject/1915385/
片  长 93 分钟
导  演 J. Lee Thompson
编  剧 John William Corrington / Joyce Hooper Corrington
主  演 Roddy McDowall
      Claude Akins
      Natalie Trundy


标  签 科幻 | 美国 | 人猿星球系列 | 1973 | 美国电影 | 人猿星球 | 人性 | 反乌托邦

简  介  

  《决战猩球》(Battle for the Planet of the Apes) 1973年 2678年,猿族教授在报告凯撒昔时的故事,那是在2015年,猿族中发生叛乱,大猩猩们在将军艾多(General Aldo)的率领下和一群发生变异的人类一赞成图颠覆凯撒的带领,决战起头了...

  1. Video
  2. ID                                       : 1
  3. Format                                   : AVC
  4. Format/Info                              : Advanced Video Codec
  5. Format profile                           : <a href="/cdn-cgi/l/email-protection" class="__cf_email__" data-cfemail="9ad2f3fdf2dad6aeb4ab">[email protected]</a>
  6. Format settings, CABAC                   : Yes
  7. Format settings, ReFrames                : 5 frames
  8. Codec ID                                 : V_MPEG4/ISO/AVC
  9. Duration                                 : 1 h 26 min
  10. Bit rate                                 : 11.6 Mb/s
  11. Width                                    : 1 920 pixels
  12. Height                                   : 816 pixels
  13. Display aspect ratio                     : 2.35:1
  14. Frame rate mode                          : Constant
  15. Frame rate                               : 23.976 FPS
  16. Color space                              : YUV
  17. Chroma subsampling                       : 4:2:0
  18. Bit depth                                : 8 bits
  19. Scan type                                : Progressive
  20. Bits/(Pixel*Frame)                       : 0.309
  21. Stream size                              : 6.86 GiB (87%)
  22. Writing library                          : x264 core 67 r1129 c109c8e
  23. Encoding settings                        : cabac=1 / ref=5 / deblock=1:0:0 / analyse=0x3:0x133 / me=umh / subme=7 / psy_rd=1.0:0.0 / mixed_ref=1 / me_range=16 / chroma_me=1 / trellis=1 / 8x8dct=1 / cqm=0 / deadzone=21,11 / chroma_qp_offset=-2 / threads=6 / nr=0 / decimate=1 / mbaff=0 / bframes=3 / b_pyramid=1 / b_adapt=1 / b_bias=0 / direct=1 / wpredb=1 / keyint=250 / keyint_min=25 / scenecut=40 / rc=2pass / bitrate=11608 / ratetol=1.0 / qcomp=0.60 / qpmin=10 / qpmax=51 / qpstep=4 / cplxblur=20.0 / qblur=0.5 / ip_ratio=1.40 / pb_ratio=1.30 / aq=1:1.00
  24. Language                                 : English
  25. Default                                  : Yes
  26. Forced                                   : No

  27. Audio
  28. ID                                       : 2
  29. Format                                   : DTS
  30. Format/Info                              : Digital Theater Systems
  31. Mode                                     : 16
  32. Format settings, Endianness              : Big
  33. Codec ID                                 : A_DTS
  34. Duration                                 : 1 h 26 min
  35. Bit rate mode                            : Constant
  36. Bit rate                                 : 1 509 kb/s
  37. Channel(s)                               : 6 channels
  38. Channel positions                        : Front: L C R, Side: L R, LFE
  39. Sampling rate                            : 48.0 kHz
  40. Frame rate                               : 93.750 FPS (512 spf)
  41. Bit depth                                : 24 bits
  42. Compression mode                         : Lossy
  43. Stream size                              : 934 MiB (12%)
  44. Language                                 : English
  45. Default                                  : Yes
  46. Forced                                   : No

  47. Text
  48. ID                                       : 3
  49. Format                                   : UTF-8
  50. Codec ID                                 : S_TEXT/UTF8
  51. Codec ID/Info                            : UTF-8 Plain Text
  52. Language                                 : English
  53. Default                                  : Yes
  54. Forced                                   : No
复制代码

决战猩球/人猿星球5 Battle.For.The.Planet.Of.The.Apes.1973.1080p.BluRay.x264-CLASSiC 7.93GB-2.png 决战猩球/人猿星球5 Battle.For.The.Planet.Of.The.Apes.1973.1080p.BluRay.x264-CLASSiC 7.93GB-2.png 决战猩球/人猿星球5 Battle.For.The.Planet.Of.The.Apes.1973.1080p.BluRay.x264-CLASSiC 7.93GB-4.png 决战猩球/人猿星球5 Battle.For.The.Planet.Of.The.Apes.1973.1080p.BluRay.x264-CLASSiC 7.93GB-3.png 决战猩球/人猿星球5 Battle.For.The.Planet.Of.The.Apes.1973.1080p.BluRay.x264-CLASSiC 7.93GB-6.png 决战猩球/人猿星球5 Battle.For.The.Planet.Of.The.Apes.1973.1080p.BluRay.x264-CLASSiC 7.93GB-7.png






回复

使用道具 举报

级别:初级观众 Lv.1

注册时间
2019-6-12
最后登录
2019-6-12
听众
2
收听
0
主题
0
蓝光币
0 枚
贡献
0 点
发表于 2019-6-12 10:21:14 | 显示全部楼层
很不错  这么快就可以看了    哈哈好气哈哈
回复

使用道具 举报

级别:普通观众 Lv.2

注册时间
2019-2-8
最后登录
2019-6-13
听众
5
收听
0
主题
0
蓝光币
7 枚
贡献
0 点
发表于 2019-6-13 22:02:44 | 显示全部楼层
感谢分享,谢谢
回复

使用道具 举报

*滑动验证:
懒得打字嘛,点击右侧快捷回复 【右侧内容,后台自定义】
您需要登录后才可以回帖 登录 | 立即注册

本版积分规则

QQ|Archiver|手机版|小黑屋| 中国高清网 |网站地图

GMT+8, 2019-6-25 20:35 , Processed in 0.295331 second(s), 46 queries .

Powered by HDchina X3.4

Copyright 2017-2019©HDchina.All right reserved

返回顶部 联系我们