你所知道的4K资源这里全部都有 4K电影 | 4K视频 | 4K壁纸 | 4K MV 怎么播放4K视频 | 4K电视演示片

教你玩转4K私人与家庭影院存储 NAS组装 | 黑群辉 家庭/影院Nas论坛

4K家庭影院信号源与视频设备知识 4K蓝光高清播放机 - 那个品牌好? 4K投影机论坛 | 4K电视机论坛

手把手教你搭建属于自己的家庭影院 4K家庭影院案例 | 家庭影院音频 4K家庭影院论坛

查看: 205|回复: 1

[10bit.SDR] 危机13小时 13.Hours.The.Secret.Soldiers.Of.Benghazi.2016.2160p.BluRay.x265.10bit.SDR.DTS-HD.MA.TrueHD.7.1.Atmos-SWTYBLZ 49.04GB

[复制链接]

 成长值: 1670

级别:资源管理组

注册时间
2017-10-20
最后登录
2019-6-25
听众
0
收听
0
主题
78745
蓝光币
29088 枚
贡献
3070 点
发表于 2019-6-6 12:21:46 | 显示全部楼层 |阅读模式
危机13小时 13.Hours.The.Secret.Soldiers.Of.Benghazi.2016.2160p.BluRay.x265.10bit.SDR.DTS-HD.MA.TrueHD.7.1.Atmos-SWTYBLZ 49.04GB-1.png

译  名 危机13小时 / 13 Hours / 13小时 / 13小时:班加西知名豪杰(港) / 13小时:班加西的奥秘兵士(台)
片  名 13 Hours: The Secret Soldiers of Benghazi
年  代 2016
产  地 美国
类  别 剧情 / 行动 / 惊悚 / 战争
语  言 英语
上映日期 2016-01-15(美国)
IMDb评分  7.3/10 from 103474 users
IMDb链接  http://www.imdb.com/title/tt4172430
豆瓣评分 7.8/10 from 40615 users
豆瓣链接 https://movie.douban.com/subject/26220717/
片  长 144分钟
导  演 迈克尔·贝 Michael Bay
编  剧 查克·霍根 Chuck Hogan / 米切尔·朱可夫 Mitchell Zuckoff
主  演 詹姆斯·戴尔 James Badge Dale
      约翰·卡拉辛斯基 John Krasinski
      马克斯·马蒂尼 Max Martini
      多米尼克·福穆萨 Dominic Fumusa
      巴勃罗·施瑞博尔 Pablo Schreiber
      大卫·丹曼 David Denman
      马特·莱斯切尔 Matt Letscher
      托比·斯蒂芬斯 Toby Stephens
      艾莉克西娅·芭利尔 Alexia Barlier
      弗雷迪·史卓玛 Freddie Stroma
      大卫·科斯塔贝尔 David Costabile
      莉莎·伊娃斯蒂娜 Liisa Evastina
      安德烈·克劳德 Andrei Claude
      大卫·君图力 David Giuntoli


标  签 战争 | 美国 | 实在事务改编 | 行动 | 政治 | 2016 | 剧情 | 真人真事改编

简  介  

  迈克尔·贝导的这部新片按照米切尔·朱可夫(Mitchell Zuckoff)同名小说改编,是一部政治题材的电影。2012年9月11日,在利比亚班加西的美国领事馆前发生一路反美示威事务,入夜后数十名武装份子冲进领事馆,示威演变成暴力抵触,终极致使包括美国大使约翰·克里斯托弗·史蒂文斯(Christopher J. Stevens)在内的四人灭亡,这也是33年以来第一个被可骇份子杀戮的美国大使,影片《危机13小时》就是由这一实在事务取材。

获奖情况  

  第89届奥斯卡金像奖(2017)
  最好混音(提名) Jeffrey J. Haboush / 加里·萨默斯 / 麦克·鲁斯

  第21届金卫星奖(2017)
  电影部分 最好音效(提名) 格雷格· P·罗素 / 加里·萨默斯 / 伊桑·范德莱恩 / 埃里克·阿达尔 / Jeffrey J. Haboush

  第3届豆瓣电影年度榜单(2016)
  评分最高的科幻/行动片(提名)



  1. Video
  2. ID                                       : 1
  3. Format                                   : HEVC
  4. Format/Info                              : High Efficiency Video Coding
  5. Format profile                           : Main <a href="/cdn-cgi/l/email-protection" class="__cf_email__" data-cfemail="437273030f766d72">[email protected]</a>@High
  6. Codec ID                                 : V_MPEGH/ISO/HEVC
  7. Duration                                 : 2 h 24 min
  8. Bit rate                                 : 39.2 Mb/s
  9. Width                                    : 3 840 pixels
  10. Height                                   : 1 600 pixels
  11. Display aspect ratio                     : 2.40:1
  12. Frame rate mode                          : Constant
  13. Frame rate                               : 23.976 (24000/1001) FPS
  14. Color space                              : YUV
  15. Chroma subsampling                       : 4:2:0
  16. Bit depth                                : 10 bits
  17. Bits/(Pixel*Frame)                       : 0.266
  18. Stream size                              : 39.5 GiB (81%)
  19. Title                                    : 13.Hours.The.Secret.Soldiers.Of.Benghazi.2016.2160p.BluRay.x265.10bit.SDR.DTS-HD.MA.TrueHD.7.1.Atmos-SWTYBLZ
  20. Writing library                          : x265 3.0ed72af837053:[Windows][GCC 8.2.0][64 bit] 10bit
  21. Encoding settings                        : cpuid=1111039 / frame-threads=16 / numa-pools=44,44 / wpp / no-pmode / no-pme / no-psnr / no-ssim / log-level=2 / input-csp=1 / input-res=3840x1600 / interlace=0 / total-frames=207822 / level-idc=51 / high-tier=1 / uhd-bd=0 / ref=3 / no-allow-non-conformance / repeat-headers / annexb / aud / hrd / info / hash=0 / no-temporal-layers / no-open-gop / min-keyint=1 / keyint=24 / gop-lookahead=0 / bframes=4 / b-adapt=2 / b-pyramid / bframe-bias=0 / rc-lookahead=25 / lookahead-slices=4 / scenecut=40 / radl=0 / no-splice / no-intra-refresh / ctu=64 / min-cu-size=8 / no-rect / no-amp / max-tu-size=32 / tu-inter-depth=1 / tu-intra-depth=1 / limit-tu=0 / rdoq-level=0 / dynamic-rd=0.00 / no-ssim-rd / signhide / no-tskip / nr-intra=0 / nr-inter=0 / no-constrained-intra / strong-intra-smoothing / max-merge=2 / limit-refs=3 / no-limit-modes / me=1 / subme=2 / merange=57 / temporal-mvp / weightp / no-weightb / no-analyze-src-pics / deblock=0:0 / no-sao / no-sao-non-deblock / rd=3 / no-early-skip / rskip / no-fast-intra / no-tskip-fast / no-cu-lossless / no-b-intra / no-splitrd-skip / rdpenalty=0 / psy-rd=2.00 / psy-rdoq=0.00 / no-rd-refine / no-lossless / cbqpoffs=0 / crqpoffs=0 / rc=crf / crf=16.0 / qcomp=0.60 / qpstep=4 / stats-write=0 / stats-read=0 / vbv-maxrate=160000 / vbv-bufsize=160000 / vbv-init=0.9 / crf-max=0.0 / crf-min=0.0 / ipratio=1.40 / pbratio=1.30 / aq-mode=1 / aq-strength=1.00 / cutree / zone-count=0 / no-strict-cbr / qg-size=32 / no-rc-grain / qpmax=69 / qpmin=0 / no-const-vbv / sar=1 / overscan=0 / videoformat=5 / range=0 / colorprim=2 / transfer=2 / colormatrix=2 / chromaloc=0 / display-window=0 / max-cll=0,0 / min-luma=0 / max-luma=1023 / log2-max-poc-lsb=8 / vui-timing-info / vui-hrd-info / slices=1 / opt-qp-pps / opt-ref-list-length-pps / no-multi-pass-opt-rps / scenecut-bias=0.05 / no-opt-cu-delta-qp / no-aq-motion / no-hdr / no-hdr-opt / no-dhdr10-opt / no-idr-recovery-sei / analysis-reuse-level=5 / scale-factor=0 / refine-intra=0 / refine-inter=0 / refine-mv=0 / refine-ctu-distortion=0 / no-limit-sao / ctu-info=0 / no-lowpass-dct / refine-analysis-type=0 / copy-pic=1 / max-ausize-factor=1.0 / no-dynamic-refine / no-single-sei / no-hevc-aq / qp-adaptation-range=1.00
  22. Default                                  : Yes
  23. Forced                                   : No

  24. Audio #1
  25. ID                                       : 2
  26. Format                                   : MLP FBA 16-ch
  27. Format/Info                              : Meridian Lossless Packing FBA with 16-channel presentation
  28. Commercial name                          : Dolby TrueHD with Dolby Atmos
  29. Codec ID                                 : A_TRUEHD
  30. Duration                                 : 2 h 24 min
  31. Bit rate mode                            : Variable
  32. Bit rate                                 : 4 642 kb/s
  33. Maximum bit rate                         : 7 500 kb/s
  34. Channel(s)                               : 8 channels
  35. Channel layout                           : L R C LFE Ls Rs Lb Rb
  36. Sampling rate                            : 48.0 kHz
  37. Frame rate                               : 1 200.000 FPS (40 SPF)
  38. Compression mode                         : Lossless
  39. Stream size                              : 4.68 GiB (10%)
  40. Title                                    : 13.Hours.The.Secret.Soldiers.Of.Benghazi.2016.2160p.BluRay.x265.10bit.SDR.DTS-HD.MA.TrueHD.7.1.Atmos-SWTYBLZ
  41. Language                                 : English
  42. Default                                  : Yes
  43. Forced                                   : No
  44. Number of dynamic objects                : 11
  45. Bed channel count                        : 1 channel
  46. Bed channel configuration                : LFE

  47. Audio #2
  48. ID                                       : 3
  49. Format                                   : DTS XLL
  50. Format/Info                              : Digital Theater Systems
  51. Commercial name                          : DTS-HD Master Audio
  52. Codec ID                                 : A_DTS
  53. Duration                                 : 2 h 24 min
  54. Bit rate mode                            : Variable
  55. Bit rate                                 : 3 854 kb/s
  56. Channel(s)                               : 8 channels
  57. Channel layout                           : C L R LFE Lb Rb Lss Rss
  58. Sampling rate                            : 48.0 kHz
  59. Frame rate                               : 93.750 FPS (512 SPF)
  60. Bit depth                                : 24 bits
  61. Compression mode                         : Lossless
  62. Stream size                              : 3.89 GiB (8%)
  63. Title                                    : 13.Hours.The.Secret.Soldiers.Of.Benghazi.2016.2160p.BluRay.x265.10bit.SDR.DTS-HD.MA.TrueHD.7.1.Atmos-SWTYBLZ
  64. Language                                 : English
  65. Default                                  : No
  66. Forced                                   : No

  67. Audio #3
  68. ID                                       : 4
  69. Format                                   : AC-3
  70. Format/Info                              : Audio Coding 3
  71. Commercial name                          : Dolby Digital
  72. Codec ID                                 : A_AC3
  73. Duration                                 : 2 h 24 min
  74. Bit rate mode                            : Constant
  75. Bit rate                                 : 640 kb/s
  76. Channel(s)                               : 6 channels
  77. Channel layout                           : L R C LFE Ls Rs
  78. Sampling rate                            : 48.0 kHz
  79. Frame rate                               : 31.250 FPS (1536 SPF)
  80. Bit depth                                : 16 bits
  81. Compression mode                         : Lossy
  82. Stream size                              : 661 MiB (1%)
  83. Title                                    : 13.Hours.The.Secret.Soldiers.Of.Benghazi.2016.2160p.BluRay.x265.10bit.SDR.DTS-HD.MA.TrueHD.7.1.Atmos-SWTYBLZ
  84. Language                                 : English
  85. Service kind                             : Complete Main
  86. Default                                  : No
  87. Forced                                   : No

  88. Text #1
  89. ID                                       : 5
  90. Format                                   : UTF-8
  91. Codec ID                                 : S_TEXT/UTF8
  92. Codec ID/Info                            : UTF-8 Plain Text
  93. Duration                                 : 2 h 14 min
  94. Bit rate                                 : 65 b/s
  95. Count of elements                        : 2037
  96. Stream size                              : 64.3 KiB (0%)
  97. Title                                    : English-SRT
  98. Language                                 : English
  99. Default                                  : Yes
  100. Forced                                   : No

  101. Text #2
  102. ID                                       : 6
  103. Format                                   : PGS
  104. Muxing mode                              : zlib
  105. Codec ID                                 : S_HDMV/PGS
  106. Codec ID/Info                            : Picture based subtitle format used on BDs/HD-DVDs
  107. Duration                                 : 2 h 14 min
  108. Bit rate                                 : 40.5 kb/s
  109. Count of elements                        : 4086
  110. Stream size                              : 38.9 MiB (0%)
  111. Title                                    : English-PGS
  112. Language                                 : English
  113. Default                                  : No
  114. Forced                                   : No

  115. Text #3
  116. ID                                       : 7
  117. Format                                   : PGS
  118. Muxing mode                              : zlib
  119. Codec ID                                 : S_HDMV/PGS
  120. Codec ID/Info                            : Picture based subtitle format used on BDs/HD-DVDs
  121. Duration                                 : 2 h 15 min
  122. Bit rate                                 : 45.2 kb/s
  123. Count of elements                        : 4548
  124. Stream size                              : 43.7 MiB (0%)
  125. Title                                    : English-SDH-PGS
  126. Language                                 : English
  127. Default                                  : No
  128. Forced                                   : No

  129. Text #4
  130. ID                                       : 8
  131. Format                                   : PGS
  132. Muxing mode                              : zlib
  133. Codec ID                                 : S_HDMV/PGS
  134. Codec ID/Info                            : Picture based subtitle format used on BDs/HD-DVDs
  135. Duration                                 : 2 h 23 min
  136. Bit rate                                 : 36.8 kb/s
  137. Count of elements                        : 4656
  138. Stream size                              : 37.9 MiB (0%)
  139. Title                                    : French-PGS
  140. Language                                 : French
  141. Default                                  : No
  142. Forced                                   : No

  143. Text #5
  144. ID                                       : 9
  145. Format                                   : PGS
  146. Muxing mode                              : zlib
  147. Codec ID                                 : S_HDMV/PGS
  148. Codec ID/Info                            : Picture based subtitle format used on BDs/HD-DVDs
  149. Duration                                 : 2 h 23 min
  150. Bit rate                                 : 32.2 kb/s
  151. Count of elements                        : 3674
  152. Stream size                              : 33.2 MiB (0%)
  153. Title                                    : Portuguese-PGS
  154. Language                                 : Portuguese
  155. Default                                  : No
  156. Forced                                   : No

  157. Text #6
  158. ID                                       : 10
  159. Format                                   : PGS
  160. Muxing mode                              : zlib
  161. Codec ID                                 : S_HDMV/PGS
  162. Codec ID/Info                            : Picture based subtitle format used on BDs/HD-DVDs
  163. Duration                                 : 2 h 23 min
  164. Bit rate                                 : 38.3 kb/s
  165. Count of elements                        : 3798
  166. Stream size                              : 39.4 MiB (0%)
  167. Title                                    : Spanish-PGS
  168. Language                                 : Spanish
  169. Default                                  : No
  170. Forced                                   : No

  171. Menu
  172. 00:00:00.000                             : en:Chapter 01
  173. 00:04:46.536                             : en:Chapter 02
  174. 00:09:00.498                             : en:Chapter 03
  175. 00:15:30.721                             : en:Chapter 04
  176. 00:21:11.395                             : en:Chapter 05
  177. 00:26:47.939                             : en:Chapter 06
  178. 00:31:21.921                             : en:Chapter 07
  179. 00:34:19.140                             : en:Chapter 08
  180. 00:39:35.289                             : en:Chapter 09
  181. 00:47:11.703                             : en:Chapter 10
  182. 00:53:58.193                             : en:Chapter 11
  183. 01:02:26.784                             : en:Chapter 12
  184. 01:10:02.489                             : en:Chapter 13
  185. 01:23:01.643                             : en:Chapter 14
  186. 01:27:10.266                             : en:Chapter 15
  187. 01:34:49.850                             : en:Chapter 16
  188. 01:42:35.524                             : en:Chapter 17
  189. 01:48:07.314                             : en:Chapter 18
  190. 01:53:46.444                             : en:Chapter 19
  191. 02:00:22.048                             : en:Chapter 20
  192. 02:07:18.631                             : en:Chapter 21
  193. 02:18:24.337                             : en:Chapter 22
复制代码

危机13小时 13.Hours.The.Secret.Soldiers.Of.Benghazi.2016.2160p.BluRay.x265.10bit.SDR.DTS-HD.MA.TrueHD.7.1.Atmos-SWTYBLZ 49.04GB-2.png 危机13小时 13.Hours.The.Secret.Soldiers.Of.Benghazi.2016.2160p.BluRay.x265.10bit.SDR.DTS-HD.MA.TrueHD.7.1.Atmos-SWTYBLZ 49.04GB-3.png 危机13小时 13.Hours.The.Secret.Soldiers.Of.Benghazi.2016.2160p.BluRay.x265.10bit.SDR.DTS-HD.MA.TrueHD.7.1.Atmos-SWTYBLZ 49.04GB-4.png 危机13小时 13.Hours.The.Secret.Soldiers.Of.Benghazi.2016.2160p.BluRay.x265.10bit.SDR.DTS-HD.MA.TrueHD.7.1.Atmos-SWTYBLZ 49.04GB-5.png 危机13小时 13.Hours.The.Secret.Soldiers.Of.Benghazi.2016.2160p.BluRay.x265.10bit.SDR.DTS-HD.MA.TrueHD.7.1.Atmos-SWTYBLZ 49.04GB-6.png 危机13小时 13.Hours.The.Secret.Soldiers.Of.Benghazi.2016.2160p.BluRay.x265.10bit.SDR.DTS-HD.MA.TrueHD.7.1.Atmos-SWTYBLZ 49.04GB-7.png






本帖隐藏的下载地址需要VIP会员才可阅读,您需要升级才可阅读,点击这里升级VIP

回复

使用道具 举报

级别:初级观众 Lv.1

注册时间
2019-6-8
最后登录
2019-6-23
听众
4
收听
0
主题
0
蓝光币
9 枚
贡献
0 点
发表于 2019-6-11 17:12:46 | 显示全部楼层
好看的电影,感谢楼主分享!
回复

使用道具 举报

*滑动验证:
懒得打字嘛,点击右侧快捷回复 【右侧内容,后台自定义】
您需要登录后才可以回帖 登录 | 立即注册

本版积分规则

QQ|Archiver|手机版|小黑屋| 中国高清网 |网站地图

GMT+8, 2019-6-25 19:51 , Processed in 0.323967 second(s), 47 queries .

Powered by HDchina X3.4

Copyright 2017-2019©HDchina.All right reserved

返回顶部 联系我们