你所知道的4K资源这里全部都有 4K电影 | 4K视频 | 4K壁纸 | 4K MV 怎么播放4K视频 | 4K电视演示片

教你玩转4K私人与家庭影院存储 NAS组装 | 黑群辉 家庭/影院Nas论坛

4K家庭影院信号源与视频设备知识 4K蓝光高清播放机 - 那个品牌好? 4K投影机论坛 | 4K电视机论坛

手把手教你搭建属于自己的家庭影院 4K家庭影院案例 | 家庭影院音频 4K家庭影院论坛

查看: 132|回复: 1

[8bit.SDR] 玩具总动员2/反斗奇兵2 Toy.Story.2.1999.2160p.BluRay.x264.8bit.SDR.DTS-HD.MA.TrueHD.7.1.Atmos-SWTYBLZ 16.65GB

[复制链接]

 成长值: 1670

级别:资源管理组

注册时间
2017-10-20
最后登录
2019-6-25
听众
0
收听
0
主题
78745
蓝光币
29088 枚
贡献
3070 点
发表于 2019-6-3 23:20:18 | 显示全部楼层 |阅读模式
玩具总带动2/反斗奇兵2 Toy.Story.2.1999.2160p.BluRay.x264.8bit.SDR.DTS-HD.MA.TrueHD.7.1.Atmos-SWTYBLZ 16.65GB-1.png

译  名 玩具总带动2 / 反斗奇兵2(港) / 反斗奇兵续集 / 玩具的故事2
片  名 Toy Story 2
年  代 1999
产  地 美国
类  别 笑剧 / 动画 / 奇异 / 冒险
语  言 英语
上映日期 1999-11-24(美国)
IMDb评分  7.9/10 from 468452 users
IMDb链接  http://www.imdb.com/title/tt0120363
豆瓣评分 8.2/10 from 114426 users
豆瓣链接 https://movie.douban.com/subject/1291574/
片  长 92分钟
导  演 约翰·拉塞特 John Lasseter / 艾什·布兰农 Ash Brannon / 李·昂克里奇 Lee Unkrich
编  剧 约翰·拉塞特 John Lasseter / 彼特·道格特 Pete Docter / 艾什·布兰农 Ash Brannon / 安德鲁·斯坦顿 Andrew Stanton / 萧丽塔 Rita Hsiao / 道格·钱伯林 Doug Chamberlin / 克里斯·韦伯 Chris Webb
主  演 汤姆·汉克斯 Tom Hanks
      蒂姆·艾伦 Tim Allen
      琼·库萨克 Joan Cusack
      凯尔希·格兰莫 Kelsey Grammer
      唐·里克斯 Don Rickles
      吉姆·法尼 Jim Varney
      华莱士·肖恩 Wallace Shawn
      约翰·拉岑贝格 John Ratzenberger
      安妮·波茨 Annie Potts
      韦恩·奈特 Wayne Knight
      约翰·莫里斯 John Morris
      劳里·梅特卡夫 Laurie Metcalf
      爱丝黛儿·哈里斯 Estelle Harris
      李·厄米 R. Lee Ermey
      裘蒂·班森 Jodi Benson


标  签 动画 | 美国 | 迪斯尼 | pixar | 动画片 | 1999 | DISNEY | 美国电影

简  介  

  自从上一集牛仔伍迪救回巴斯光年以后,他一向和其他玩具一路欢畅的生活在小仆人家。一次,小仆人加入夏令营去了,伍迪由于陈旧而没被带去。留在家里的伍迪恰巧被一个玩具收藏家发现了,以为他是近代最具代表性的玩具。因而将伍迪被偷了出来放在颇富盛名的文化博物馆内展览。在家里一切的玩具 都很担忧伍迪,是以巴斯光年自告奋勇去寻觅伍迪,可是当他们发现伍迪在展览馆时, 伍迪却似乎不再愿意回去过那普通的生活……

获奖情况  

  第72届奥斯卡金像奖(2000)
  最好原创歌曲(提名) 兰迪·纽曼

  第28届动画安妮奖(2000)
  最好动画长片
  最好导演 艾什·布兰农 / 约翰·拉塞特 / 李·昂克里奇
  最好编剧 安德鲁·斯坦顿 / 道格·钱伯林 / 彼特·道格特 / 萧丽塔 / 艾什·布兰农 / 克里斯·韦伯 / 约翰·拉塞特
  最好男配音 蒂姆·艾伦
  最好女配音 琼·库萨克
  最好配乐 兰迪·纽曼
  最好分镜 乔·兰福特 / Dan Jeup
  最好艺术指导(提名) William Cone / Jim Pearson
  最好动画脚色(提名) 道格·斯威特兰德



  1. Video
  2. ID                                       : 1
  3. Format                                   : AVC
  4. Format/Info                              : Advanced Video Codec
  5. Format profile                           : <a href="/cdn-cgi/l/email-protection" class="__cf_email__" data-cfemail="266e4f414e666a130817">[email protected]</a>
  6. Format settings                          : CABAC / 5 Ref Frames
  7. Format settings, CABAC                   : Yes
  8. Format settings, RefFrames               : 5 frames
  9. Codec ID                                 : V_MPEG4/ISO/AVC
  10. Duration                                 : 1 h 32 min
  11. Bit rate                                 : 13.9 Mb/s
  12. Width                                    : 3 840 pixels
  13. Height                                   : 2 160 pixels
  14. Display aspect ratio                     : 16:9
  15. Frame rate mode                          : Constant
  16. Frame rate                               : 23.976 (24000/1001) FPS
  17. Color space                              : YUV
  18. Chroma subsampling                       : 4:2:0
  19. Bit depth                                : 8 bits
  20. Scan type                                : Progressive
  21. Bits/(Pixel*Frame)                       : 0.070
  22. Stream size                              : 8.98 GiB (54%)
  23. Title                                    : Toy.Story.2.1999.2160p.BluRay.x264.8bit.SDR.DTS-HD.MA.TrueHD.7.1.Atmos-SWTYBLZ
  24. Writing library                          : x264 core 157 r2935 545de2f
  25. Encoding settings                        : cabac=1 / ref=5 / deblock=1:1:1 / analyse=0x3:0x113 / me=umh / subme=10 / psy=1 / psy_rd=0.40:0.00 / mixed_ref=1 / me_range=48 / chroma_me=1 / trellis=2 / 8x8dct=1 / cqm=0 / deadzone=21,11 / fast_pskip=1 / chroma_qp_offset=-2 / threads=48 / lookahead_threads=5 / sliced_threads=0 / nr=0 / decimate=0 / interlaced=0 / bluray_compat=0 / constrained_intra=0 / bframes=5 / b_pyramid=2 / b_adapt=2 / b_bias=0 / direct=3 / weightb=1 / open_gop=0 / weightp=2 / keyint=250 / keyint_min=23 / scenecut=40 / intra_refresh=0 / rc_lookahead=50 / rc=crf / mbtree=1 / crf=18.0 / qcomp=0.60 / qpmin=0 / qpmax=69 / qpstep=4 / ip_ratio=1.40 / aq=1:0.60
  26. Default                                  : Yes
  27. Forced                                   : No

  28. Audio #1
  29. ID                                       : 2
  30. Format                                   : MLP FBA 16-ch
  31. Format/Info                              : Meridian Lossless Packing FBA with 16-channel presentation
  32. Commercial name                          : Dolby TrueHD with Dolby Atmos
  33. Codec ID                                 : A_TRUEHD
  34. Duration                                 : 1 h 32 min
  35. Bit rate mode                            : Variable
  36. Bit rate                                 : 7 059 kb/s
  37. Maximum bit rate                         : 8 883 kb/s
  38. Channel(s)                               : 8 channels
  39. Channel layout                           : L R C LFE Ls Rs Lb Rb
  40. Sampling rate                            : 48.0 kHz
  41. Frame rate                               : 1 200.000 FPS (40 SPF)
  42. Compression mode                         : Lossless
  43. Stream size                              : 4.56 GiB (27%)
  44. Title                                    : Toy.Story.2.1999.2160p.BluRay.x264.8bit.SDR.DTS-HD.MA.TrueHD.7.1.Atmos-SWTYBLZ
  45. Language                                 : English
  46. Default                                  : Yes
  47. Forced                                   : No
  48. Number of dynamic objects                : 13
  49. Bed channel count                        : 1 channel
  50. Bed channel configuration                : LFE

  51. Audio #2
  52. ID                                       : 3
  53. Format                                   : DTS XLL
  54. Format/Info                              : Digital Theater Systems
  55. Commercial name                          : DTS-HD Master Audio
  56. Codec ID                                 : A_DTS
  57. Duration                                 : 1 h 32 min
  58. Bit rate mode                            : Variable
  59. Bit rate                                 : 3 939 kb/s
  60. Channel(s)                               : 8 channels
  61. Channel layout                           : C L R LFE Lb Rb Lss Rss
  62. Sampling rate                            : 48.0 kHz
  63. Frame rate                               : 93.750 FPS (512 SPF)
  64. Bit depth                                : 24 bits
  65. Compression mode                         : Lossless
  66. Stream size                              : 2.54 GiB (15%)
  67. Title                                    : Toy.Story.2.1999.2160p.BluRay.x264.8bit.SDR.DTS-HD.MA.TrueHD.7.1.Atmos-SWTYBLZ
  68. Language                                 : English
  69. Default                                  : No
  70. Forced                                   : No

  71. Audio #3
  72. ID                                       : 4
  73. Format                                   : AC-3
  74. Format/Info                              : Audio Coding 3
  75. Commercial name                          : Dolby Digital
  76. Codec ID                                 : A_AC3
  77. Duration                                 : 1 h 32 min
  78. Bit rate mode                            : Constant
  79. Bit rate                                 : 640 kb/s
  80. Channel(s)                               : 6 channels
  81. Channel layout                           : L R C LFE Ls Rs
  82. Sampling rate                            : 48.0 kHz
  83. Frame rate                               : 31.250 FPS (1536 SPF)
  84. Bit depth                                : 16 bits
  85. Compression mode                         : Lossy
  86. Stream size                              : 423 MiB (2%)
  87. Title                                    : Toy.Story.2.1999.2160p.BluRay.x264.8bit.SDR.DTS-HD.MA.TrueHD.7.1.Atmos-SWTYBLZ
  88. Language                                 : English
  89. Service kind                             : Complete Main
  90. Default                                  : No
  91. Forced                                   : No

  92. Text #1
  93. ID                                       : 5
  94. Format                                   : UTF-8
  95. Codec ID                                 : S_TEXT/UTF8
  96. Codec ID/Info                            : UTF-8 Plain Text
  97. Duration                                 : 1 h 29 min
  98. Bit rate                                 : 65 b/s
  99. Count of elements                        : 1219
  100. Stream size                              : 43.2 KiB (0%)
  101. Title                                    : English-SRT
  102. Language                                 : English
  103. Default                                  : Yes
  104. Forced                                   : No

  105. Text #2
  106. ID                                       : 6
  107. Format                                   : PGS
  108. Muxing mode                              : zlib
  109. Codec ID                                 : S_HDMV/PGS
  110. Codec ID/Info                            : Picture based subtitle format used on BDs/HD-DVDs
  111. Duration                                 : 1 h 31 min
  112. Bit rate                                 : 48.5 kb/s
  113. Count of elements                        : 2886
  114. Stream size                              : 31.7 MiB (0%)
  115. Title                                    : English-SDH-PGS
  116. Language                                 : English
  117. Default                                  : No
  118. Forced                                   : No

  119. Text #3
  120. ID                                       : 7
  121. Format                                   : PGS
  122. Muxing mode                              : zlib
  123. Codec ID                                 : S_HDMV/PGS
  124. Codec ID/Info                            : Picture based subtitle format used on BDs/HD-DVDs
  125. Duration                                 : 1 h 28 min
  126. Bit rate                                 : 40.1 kb/s
  127. Count of elements                        : 2370
  128. Stream size                              : 25.4 MiB (0%)
  129. Title                                    : English-PGS
  130. Language                                 : English
  131. Default                                  : No
  132. Forced                                   : No

  133. Text #4
  134. ID                                       : 8
  135. Format                                   : PGS
  136. Muxing mode                              : zlib
  137. Codec ID                                 : S_HDMV/PGS
  138. Codec ID/Info                            : Picture based subtitle format used on BDs/HD-DVDs
  139. Duration                                 : 1 h 28 min
  140. Bit rate                                 : 37.5 kb/s
  141. Count of elements                        : 2312
  142. Stream size                              : 23.7 MiB (0%)
  143. Title                                    : French-PGS
  144. Language                                 : French
  145. Default                                  : No
  146. Forced                                   : No

  147. Text #5
  148. ID                                       : 9
  149. Format                                   : PGS
  150. Muxing mode                              : zlib
  151. Codec ID                                 : S_HDMV/PGS
  152. Codec ID/Info                            : Picture based subtitle format used on BDs/HD-DVDs
  153. Duration                                 : 1 h 28 min
  154. Bit rate                                 : 39.4 kb/s
  155. Count of elements                        : 2354
  156. Stream size                              : 24.9 MiB (0%)
  157. Title                                    : Spanish-PGS
  158. Language                                 : Spanish
  159. Default                                  : No
  160. Forced                                   : No

  161. Text #6
  162. ID                                       : 10
  163. Format                                   : PGS
  164. Muxing mode                              : zlib
  165. Codec ID                                 : S_HDMV/PGS
  166. Codec ID/Info                            : Picture based subtitle format used on BDs/HD-DVDs
  167. Duration                                 : 1 h 29 min
  168. Bit rate                                 : 25.5 kb/s
  169. Count of elements                        : 2386
  170. Stream size                              : 16.3 MiB (0%)
  171. Title                                    : Japanese-PGS
  172. Language                                 : Japanese
  173. Default                                  : No
  174. Forced                                   : No

  175. Text #7
  176. ID                                       : 11
  177. Format                                   : PGS
  178. Muxing mode                              : zlib
  179. Codec ID                                 : S_HDMV/PGS
  180. Codec ID/Info                            : Picture based subtitle format used on BDs/HD-DVDs
  181. Duration                                 : 1 h 23 min
  182. Bit rate                                 : 158 b/s
  183. Count of elements                        : 18
  184. Stream size                              : 97.2 KiB (0%)
  185. Title                                    : Japanese-PGS
  186. Language                                 : Japanese
  187. Default                                  : No
  188. Forced                                   : No

  189. Menu
  190. 00:00:00.000                             : en:Chapter 01
  191. 00:01:24.417                             : en:Chapter 02
  192. 00:04:49.080                             : en:Chapter 03
  193. 00:07:36.622                             : en:Chapter 04
  194. 00:10:41.557                             : en:Chapter 05
  195. 00:11:55.339                             : en:Chapter 06
  196. 00:12:47.933                             : en:Chapter 07
  197. 00:15:30.638                             : en:Chapter 08
  198. 00:18:16.678                             : en:Chapter 09
  199. 00:20:18.425                             : en:Chapter 10
  200. 00:24:14.870                             : en:Chapter 11
  201. 00:25:55.220                             : en:Chapter 12
  202. 00:30:32.872                             : en:Chapter 13
  203. 00:31:49.282                             : en:Chapter 14
  204. 00:32:52.303                             : en:Chapter 15
  205. 00:36:45.828                             : en:Chapter 16
  206. 00:39:09.972                             : en:Chapter 17
  207. 00:39:53.724                             : en:Chapter 18
  208. 00:41:07.173                             : en:Chapter 19
  209. 00:42:26.669                             : en:Chapter 20
  210. 00:44:42.096                             : en:Chapter 21
  211. 00:46:59.399                             : en:Chapter 22
  212. 00:53:24.618                             : en:Chapter 23
  213. 00:56:20.752                             : en:Chapter 24
  214. 01:01:10.875                             : en:Chapter 25
  215. 01:02:14.772                             : en:Chapter 26
  216. 01:04:24.735                             : en:Chapter 27
  217. 01:08:01.243                             : en:Chapter 28
  218. 01:09:52.813                             : en:Chapter 29
  219. 01:12:28.302                             : en:Chapter 30
  220. 01:14:59.328                             : en:Chapter 31
  221. 01:17:29.019                             : en:Chapter 32
  222. 01:19:47.115                             : en:Chapter 33
  223. 01:21:36.641                             : en:Chapter 34
  224. 01:25:49.811                             : en:Chapter 35
复制代码

玩具总带动2/反斗奇兵2 Toy.Story.2.1999.2160p.BluRay.x264.8bit.SDR.DTS-HD.MA.TrueHD.7.1.Atmos-SWTYBLZ 16.65GB-2.png 玩具总带动2/反斗奇兵2 Toy.Story.2.1999.2160p.BluRay.x264.8bit.SDR.DTS-HD.MA.TrueHD.7.1.Atmos-SWTYBLZ 16.65GB-3.png 玩具总带动2/反斗奇兵2 Toy.Story.2.1999.2160p.BluRay.x264.8bit.SDR.DTS-HD.MA.TrueHD.7.1.Atmos-SWTYBLZ 16.65GB-5.png 玩具总带动2/反斗奇兵2 Toy.Story.2.1999.2160p.BluRay.x264.8bit.SDR.DTS-HD.MA.TrueHD.7.1.Atmos-SWTYBLZ 16.65GB-6.png 玩具总带动2/反斗奇兵2 Toy.Story.2.1999.2160p.BluRay.x264.8bit.SDR.DTS-HD.MA.TrueHD.7.1.Atmos-SWTYBLZ 16.65GB-7.png






本帖隐藏的下载地址需要VIP会员才可阅读,您需要升级才可阅读,点击这里升级VIP

回复

使用道具 举报

级别:初级观众 Lv.1

注册时间
2019-6-8
最后登录
2019-6-23
听众
4
收听
0
主题
0
蓝光币
9 枚
贡献
0 点
发表于 2019-6-11 17:58:11 | 显示全部楼层
好看的电影,感谢楼主分享!
回复

使用道具 举报

*滑动验证:
懒得打字嘛,点击右侧快捷回复 【右侧内容,后台自定义】
您需要登录后才可以回帖 登录 | 立即注册

本版积分规则

QQ|Archiver|手机版|小黑屋| 中国高清网 |网站地图

GMT+8, 2019-6-25 19:44 , Processed in 0.346656 second(s), 47 queries .

Powered by HDchina X3.4

Copyright 2017-2019©HDchina.All right reserved

返回顶部 联系我们