你所知道的4K资源这里全部都有 4K电影 | 4K视频 | 4K壁纸 | 4K MV 怎么播放4K视频 | 4K电视演示片

教你玩转4K私人与家庭影院存储 NAS组装 | 黑群辉 家庭/影院Nas论坛

4K家庭影院信号源与视频设备知识 4K蓝光高清播放机 - 那个品牌好? 4K投影机论坛 | 4K电视机论坛

手把手教你搭建属于自己的家庭影院 4K家庭影院案例 | 家庭影院音频 4K家庭影院论坛

查看: 798|回复: 7

[10bit.SDR] 惊奇队长/Marvel队长 Captain.Marvel.2019.2160p.BluRay.x265.10bit.SDR.DTS-HD.MA.TrueHD.7.1.Atmos-SWTYBLZ 20.62GB

[复制链接]

 成长值: 1670

级别:资源管理组

注册时间
2017-10-20
最后登录
2019-6-25
听众
0
收听
0
主题
78745
蓝光币
29082 枚
贡献
3070 点
发表于 2019-6-3 23:01:50 | 显示全部楼层 |阅读模式
惊奇队长/Marvel队长 Captain.Marvel.2019.2160p.BluRay.x265.10bit.SDR.DTS-HD.MA.TrueHD.7.1.Atmos-SWTYBLZ 20.62GB-1.png

译  名 惊奇队长 / Marvel队长(港) / 惊奇密斯 / 漫威队长
片  名 Captain Marvel
年  代 2019
产  地 美国
类  别 行动 / 科幻 / 冒险
语  言 英语
上映日期 2019-03-08(美国/中国大陆)
IMDb评分  7.1/10 from 268698 users
IMDb链接  http://www.imdb.com/title/tt4154664
豆瓣评分 7.0/10 from 298554 users
豆瓣链接 https://movie.douban.com/subject/26213252/
片  长 124分钟
导  演 安娜·波顿 Anna Boden / 瑞安·弗雷克 Ryan Fleck
编  剧 安娜·波顿 Anna Boden / 瑞安·弗雷克 Ryan Fleck / 吉内瓦·德沃莱特-罗宾森 Geneva Dworet-Robertson / 尼科尔·帕尔曼 Nicole Perlman / 梅格·勒福夫 Meg LeFauve
主  演 布丽·拉尔森 Brie Larson
      裘德·洛 Jude Law
      塞缪尔·杰克逊 Samuel L. Jackson
      本·门德尔森 Ben Mendelsohn
      安妮特·贝宁 Annette Bening
      麦肯娜·格瑞丝 Mckenna Grace
      克拉克·格雷格 Clark Gregg
      嘉玛·陈 Gemma Chan
      李·佩斯 Lee Pace
      杰曼·翰苏 Djimon Hounsou
      拉什纳·林奇 Lashana Lynch
      阿基拉·阿克巴 Akira Akbar
      科林·福特 Colin Ford
      卓库·莫度 Chuku Modu
      肯内特·米歇尔 Kenneth Mitchell
      罗伯特·卡辛斯基 Robert Kazinsky
      詹姆斯·莫里森 James Morrison
      皮特·普劳泽克 Pete Ploszek
      马修·马希尔 Matthew Maher
      安东尼·莫利纳利 Anthony Molinari
      马修·弗林·贝罗斯 Matthew Flynn Bellows
      加斯顿·达尔莫 Gastón Dalmau
      亚当·哈特 Adam Hart
      Mark Daugherty
      雷尼尔·鲁菲诺 Rayniel Rufino
      约翰·盖蒂尔 John Gettier
      斯坦·李 Stan Lee
      克里斯·埃文斯 Chris Evans
      斯嘉丽·约翰逊 Scarlett Johansson
      马克·鲁弗洛 Mark Ruffalo
      唐·钱德尔 Don Cheadle


标  签 漫威 | 超级豪杰 | 女性 | 美国 | 科幻 | 2019 | 漫画改编 | 行动

简  介  

  在围歼斯克鲁人的战役中,克里人星际战队成员弗斯(布丽·拉尔森 Brie Larson 饰)不幸成为对方的俘虏。斯克鲁人尝试探讨弗斯的记忆,终极发现连弗斯本人都不晓得的一段往事,进而也得著名为温迪?劳森博士的女子把握着他们急于获得的时空引擎。趁对方不备,具有强大超才能的弗斯摆脱约束,逃到了代号为C-53的地球,而这里也正是她那段失落的记忆的发生地。未过量久,神盾局捕快弗瑞奸细(塞缪尔·杰克逊 Samuel L. Jackson 饰)找上门来,而紧随厥后的斯克鲁人更是激发了地球人前所未见的大纷扰。
在这一进程中,弗瑞奸细意想到局势的严重性,而且帮助弗斯认清原本的自己。倔强的弗斯,终究找到了真正需要庇护的工具……

获奖情况  

  第5届豆瓣电影年度榜单(2018)
  最值得期待的外语电影(提名)



  1. Video
  2. ID                                       : 1
  3. Format                                   : HEVC
  4. Format/Info                              : High Efficiency Video Coding
  5. Format profile                           : Main <a href="/cdn-cgi/l/email-protection" class="__cf_email__" data-cfemail="ae9f9eeee29b809f">[email protected]</a>@High
  6. Codec ID                                 : V_MPEGH/ISO/HEVC
  7. Duration                                 : 2 h 3 min
  8. Bit rate                                 : 14.2 Mb/s
  9. Width                                    : 3 840 pixels
  10. Height                                   : 1 608 pixels
  11. Display aspect ratio                     : 2.40:1
  12. Frame rate mode                          : Constant
  13. Frame rate                               : 23.976 (24000/1001) FPS
  14. Color space                              : YUV
  15. Chroma subsampling                       : 4:2:0
  16. Bit depth                                : 10 bits
  17. Bits/(Pixel*Frame)                       : 0.096
  18. Stream size                              : 12.3 GiB (60%)
  19. Title                                    : Captain.Marvel.2019.2160p.BluRay.x265.10bit.SDR.DTS-HD.MA.TrueHD.7.1.Atmos-SWTYBLZ
  20. Writing library                          : x265 3.0ed72af837053:[Windows][GCC 8.2.0][64 bit] 10bit
  21. Encoding settings                        : cpuid=1111039 / frame-threads=16 / numa-pools=24,24,24,24 / wpp / no-pmode / no-pme / no-psnr / no-ssim / log-level=2 / input-csp=1 / input-res=3840x1608 / interlace=0 / total-frames=177939 / level-idc=51 / high-tier=1 / uhd-bd=0 / ref=3 / no-allow-non-conformance / repeat-headers / annexb / aud / hrd / info / hash=0 / no-temporal-layers / no-open-gop / min-keyint=1 / keyint=24 / gop-lookahead=0 / bframes=4 / b-adapt=2 / b-pyramid / bframe-bias=0 / rc-lookahead=25 / lookahead-slices=4 / scenecut=40 / radl=0 / no-splice / no-intra-refresh / ctu=64 / min-cu-size=8 / no-rect / no-amp / max-tu-size=32 / tu-inter-depth=1 / tu-intra-depth=1 / limit-tu=0 / rdoq-level=0 / dynamic-rd=0.00 / no-ssim-rd / signhide / no-tskip / nr-intra=0 / nr-inter=0 / no-constrained-intra / strong-intra-smoothing / max-merge=2 / limit-refs=3 / no-limit-modes / me=1 / subme=2 / merange=57 / temporal-mvp / weightp / no-weightb / no-analyze-src-pics / deblock=0:0 / no-sao / no-sao-non-deblock / rd=3 / no-early-skip / rskip / no-fast-intra / no-tskip-fast / no-cu-lossless / no-b-intra / no-splitrd-skip / rdpenalty=0 / psy-rd=2.00 / psy-rdoq=0.00 / no-rd-refine / no-lossless / cbqpoffs=0 / crqpoffs=0 / rc=crf / crf=16.0 / qcomp=0.60 / qpstep=4 / stats-write=0 / stats-read=0 / vbv-maxrate=160000 / vbv-bufsize=160000 / vbv-init=0.9 / crf-max=0.0 / crf-min=0.0 / ipratio=1.40 / pbratio=1.30 / aq-mode=1 / aq-strength=1.00 / cutree / zone-count=0 / no-strict-cbr / qg-size=32 / no-rc-grain / qpmax=69 / qpmin=0 / no-const-vbv / sar=1 / overscan=0 / videoformat=5 / range=0 / colorprim=2 / transfer=2 / colormatrix=2 / chromaloc=0 / display-window=0 / max-cll=0,0 / min-luma=0 / max-luma=1023 / log2-max-poc-lsb=8 / vui-timing-info / vui-hrd-info / slices=1 / opt-qp-pps / opt-ref-list-length-pps / no-multi-pass-opt-rps / scenecut-bias=0.05 / no-opt-cu-delta-qp / no-aq-motion / no-hdr / no-hdr-opt / no-dhdr10-opt / no-idr-recovery-sei / analysis-reuse-level=5 / scale-factor=0 / refine-intra=0 / refine-inter=0 / refine-mv=0 / refine-ctu-distortion=0 / no-limit-sao / ctu-info=0 / no-lowpass-dct / refine-analysis-type=0 / copy-pic=1 / max-ausize-factor=1.0 / no-dynamic-refine / no-single-sei / no-hevc-aq / qp-adaptation-range=1.00
  22. Default                                  : Yes
  23. Forced                                   : No

  24. Audio #1
  25. ID                                       : 2
  26. Format                                   : MLP FBA 16-ch
  27. Format/Info                              : Meridian Lossless Packing FBA with 16-channel presentation
  28. Commercial name                          : Dolby TrueHD with Dolby Atmos
  29. Codec ID                                 : A_TRUEHD
  30. Duration                                 : 2 h 3 min
  31. Bit rate mode                            : Variable
  32. Bit rate                                 : 4 613 kb/s
  33. Maximum bit rate                         : 7 317 kb/s
  34. Channel(s)                               : 8 channels
  35. Channel layout                           : L R C LFE Ls Rs Lb Rb
  36. Sampling rate                            : 48.0 kHz
  37. Frame rate                               : 1 200.000 FPS (40 SPF)
  38. Compression mode                         : Lossless
  39. Stream size                              : 3.99 GiB (19%)
  40. Title                                    : Captain.Marvel.2019.2160p.BluRay.x265.10bit.SDR.DTS-HD.MA.TrueHD.7.1.Atmos-SWTYBLZ
  41. Language                                 : English
  42. Default                                  : Yes
  43. Forced                                   : No
  44. Number of dynamic objects                : 13
  45. Bed channel count                        : 1 channel
  46. Bed channel configuration                : LFE

  47. Audio #2
  48. ID                                       : 3
  49. Format                                   : DTS XLL
  50. Format/Info                              : Digital Theater Systems
  51. Commercial name                          : DTS-HD Master Audio
  52. Codec ID                                 : A_DTS
  53. Duration                                 : 2 h 3 min
  54. Bit rate mode                            : Variable
  55. Bit rate                                 : 4 100 kb/s
  56. Channel(s)                               : 8 channels
  57. Channel layout                           : C L R LFE Lb Rb Lss Rss
  58. Sampling rate                            : 48.0 kHz
  59. Frame rate                               : 93.750 FPS (512 SPF)
  60. Bit depth                                : 24 bits
  61. Compression mode                         : Lossless
  62. Stream size                              : 3.54 GiB (17%)
  63. Title                                    : Captain.Marvel.2019.2160p.BluRay.x265.10bit.SDR.DTS-HD.MA.TrueHD.7.1.Atmos-SWTYBLZ
  64. Default                                  : No
  65. Forced                                   : No

  66. Audio #3
  67. ID                                       : 4
  68. Format                                   : AC-3
  69. Format/Info                              : Audio Coding 3
  70. Commercial name                          : Dolby Digital
  71. Codec ID                                 : A_AC3
  72. Duration                                 : 2 h 3 min
  73. Bit rate mode                            : Constant
  74. Bit rate                                 : 640 kb/s
  75. Channel(s)                               : 6 channels
  76. Channel layout                           : L R C LFE Ls Rs
  77. Sampling rate                            : 48.0 kHz
  78. Frame rate                               : 31.250 FPS (1536 SPF)
  79. Bit depth                                : 16 bits
  80. Compression mode                         : Lossy
  81. Stream size                              : 566 MiB (3%)
  82. Title                                    : Captain.Marvel.2019.2160p.BluRay.x265.10bit.SDR.DTS-HD.MA.TrueHD.7.1.Atmos-SWTYBLZ
  83. Language                                 : English
  84. Service kind                             : Complete Main
  85. Default                                  : No
  86. Forced                                   : No

  87. Text #1
  88. ID                                       : 5
  89. Format                                   : UTF-8
  90. Codec ID                                 : S_TEXT/UTF8
  91. Codec ID/Info                            : UTF-8 Plain Text
  92. Duration                                 : 1 h 53 min
  93. Bit rate                                 : 47 b/s
  94. Count of elements                        : 1424
  95. Stream size                              : 39.8 KiB (0%)
  96. Title                                    : English-SRT
  97. Language                                 : English
  98. Default                                  : Yes
  99. Forced                                   : No

  100. Text #2
  101. ID                                       : 6
  102. Format                                   : UTF-8
  103. Codec ID                                 : S_TEXT/UTF8
  104. Codec ID/Info                            : UTF-8 Plain Text
  105. Duration                                 : 2 h 2 min
  106. Bit rate                                 : 50 b/s
  107. Count of elements                        : 1668
  108. Stream size                              : 45.1 KiB (0%)
  109. Title                                    : English-SDH-SRT
  110. Language                                 : English
  111. Default                                  : No
  112. Forced                                   : No

  113. Text #3
  114. ID                                       : 7
  115. Format                                   : PGS
  116. Muxing mode                              : zlib
  117. Codec ID                                 : S_HDMV/PGS
  118. Codec ID/Info                            : Picture based subtitle format used on BDs/HD-DVDs
  119. Duration                                 : 2 h 2 min
  120. Bit rate                                 : 32.8 kb/s
  121. Count of elements                        : 3330
  122. Stream size                              : 28.7 MiB (0%)
  123. Title                                    : English-PGS
  124. Language                                 : English
  125. Default                                  : No
  126. Forced                                   : No

  127. Text #4
  128. ID                                       : 8
  129. Format                                   : PGS
  130. Muxing mode                              : zlib
  131. Codec ID                                 : S_HDMV/PGS
  132. Codec ID/Info                            : Picture based subtitle format used on BDs/HD-DVDs
  133. Duration                                 : 2 h 2 min
  134. Bit rate                                 : 29.3 kb/s
  135. Count of elements                        : 2656
  136. Stream size                              : 25.6 MiB (0%)
  137. Title                                    : French-PGS
  138. Language                                 : French
  139. Default                                  : No
  140. Forced                                   : No

  141. Text #5
  142. ID                                       : 9
  143. Format                                   : PGS
  144. Muxing mode                              : zlib
  145. Codec ID                                 : S_HDMV/PGS
  146. Codec ID/Info                            : Picture based subtitle format used on BDs/HD-DVDs
  147. Duration                                 : 2 h 2 min
  148. Bit rate                                 : 24.0 kb/s
  149. Count of elements                        : 2582
  150. Stream size                              : 21.0 MiB (0%)
  151. Title                                    : French-PGS
  152. Language                                 : French
  153. Default                                  : No
  154. Forced                                   : No

  155. Text #6
  156. ID                                       : 10
  157. Format                                   : PGS
  158. Muxing mode                              : zlib
  159. Codec ID                                 : S_HDMV/PGS
  160. Codec ID/Info                            : Picture based subtitle format used on BDs/HD-DVDs
  161. Duration                                 : 2 h 2 min
  162. Bit rate                                 : 28.1 kb/s
  163. Count of elements                        : 2614
  164. Stream size                              : 24.6 MiB (0%)
  165. Title                                    : Spanish-PGS
  166. Language                                 : Spanish
  167. Default                                  : No
  168. Forced                                   : No

  169. Text #7
  170. ID                                       : 11
  171. Format                                   : PGS
  172. Muxing mode                              : zlib
  173. Codec ID                                 : S_HDMV/PGS
  174. Codec ID/Info                            : Picture based subtitle format used on BDs/HD-DVDs
  175. Duration                                 : 2 h 2 min
  176. Bit rate                                 : 25.9 kb/s
  177. Count of elements                        : 2600
  178. Stream size                              : 22.6 MiB (0%)
  179. Title                                    : German-PGS
  180. Language                                 : German
  181. Default                                  : No
  182. Forced                                   : No

  183. Text #8
  184. ID                                       : 12
  185. Format                                   : PGS
  186. Muxing mode                              : zlib
  187. Codec ID                                 : S_HDMV/PGS
  188. Codec ID/Info                            : Picture based subtitle format used on BDs/HD-DVDs
  189. Duration                                 : 2 h 2 min
  190. Bit rate                                 : 28.7 kb/s
  191. Count of elements                        : 2594
  192. Stream size                              : 25.1 MiB (0%)
  193. Title                                    : Italian-PGS
  194. Language                                 : Italian
  195. Default                                  : No
  196. Forced                                   : No

  197. Text #9
  198. ID                                       : 13
  199. Format                                   : PGS
  200. Muxing mode                              : zlib
  201. Codec ID                                 : S_HDMV/PGS
  202. Codec ID/Info                            : Picture based subtitle format used on BDs/HD-DVDs
  203. Duration                                 : 2 h 1 min
  204. Bit rate                                 : 20.5 kb/s
  205. Count of elements                        : 2328
  206. Stream size                              : 17.8 MiB (0%)
  207. Title                                    : Japanese-PGS
  208. Language                                 : Japanese
  209. Default                                  : No
  210. Forced                                   : No

  211. Text #10
  212. ID                                       : 14
  213. Format                                   : PGS
  214. Muxing mode                              : zlib
  215. Codec ID                                 : S_HDMV/PGS
  216. Codec ID/Info                            : Picture based subtitle format used on BDs/HD-DVDs
  217. Duration                                 : 2 h 2 min
  218. Bit rate                                 : 17.0 kb/s
  219. Count of elements                        : 2638
  220. Stream size                              : 14.9 MiB (0%)
  221. Title                                    : Chinese-PGS
  222. Language                                 : Chinese
  223. Default                                  : No
  224. Forced                                   : No

  225. Text #11
  226. ID                                       : 15
  227. Format                                   : PGS
  228. Muxing mode                              : zlib
  229. Codec ID                                 : S_HDMV/PGS
  230. Codec ID/Info                            : Picture based subtitle format used on BDs/HD-DVDs
  231. Duration                                 : 2 h 2 min
  232. Bit rate                                 : 19.5 kb/s
  233. Count of elements                        : 2642
  234. Stream size                              : 17.1 MiB (0%)
  235. Title                                    : Chinese-PGS
  236. Language                                 : Chinese
  237. Default                                  : No
  238. Forced                                   : No

  239. Text #12
  240. ID                                       : 16
  241. Format                                   : PGS
  242. Muxing mode                              : zlib
  243. Codec ID                                 : S_HDMV/PGS
  244. Codec ID/Info                            : Picture based subtitle format used on BDs/HD-DVDs
  245. Duration                                 : 2 h 2 min
  246. Bit rate                                 : 25.9 kb/s
  247. Count of elements                        : 2014
  248. Stream size                              : 22.7 MiB (0%)
  249. Title                                    : Dutch-PGS
  250. Language                                 : Dutch
  251. Default                                  : No
  252. Forced                                   : No

  253. Text #13
  254. ID                                       : 17
  255. Format                                   : PGS
  256. Muxing mode                              : zlib
  257. Codec ID                                 : S_HDMV/PGS
  258. Codec ID/Info                            : Picture based subtitle format used on BDs/HD-DVDs
  259. Duration                                 : 2 h 2 min
  260. Bit rate                                 : 15.1 kb/s
  261. Count of elements                        : 2624
  262. Stream size                              : 13.2 MiB (0%)
  263. Title                                    : Korean-PGS
  264. Language                                 : Korean
  265. Default                                  : No
  266. Forced                                   : No

  267. Text #14
  268. ID                                       : 18
  269. Format                                   : PGS
  270. Muxing mode                              : zlib
  271. Codec ID                                 : S_HDMV/PGS
  272. Codec ID/Info                            : Picture based subtitle format used on BDs/HD-DVDs
  273. Duration                                 : 2 h 2 min
  274. Bit rate                                 : 25.6 kb/s
  275. Count of elements                        : 2600
  276. Stream size                              : 22.4 MiB (0%)
  277. Title                                    : Norwegian-PGS
  278. Language                                 : Norwegian
  279. Default                                  : No
  280. Forced                                   : No

  281. Text #15
  282. ID                                       : 19
  283. Format                                   : PGS
  284. Muxing mode                              : zlib
  285. Codec ID                                 : S_HDMV/PGS
  286. Codec ID/Info                            : Picture based subtitle format used on BDs/HD-DVDs
  287. Duration                                 : 2 h 2 min
  288. Bit rate                                 : 26.9 kb/s
  289. Count of elements                        : 2602
  290. Stream size                              : 23.5 MiB (0%)
  291. Title                                    : Portuguese-PGS
  292. Language                                 : Portuguese
  293. Default                                  : No
  294. Forced                                   : No

  295. Text #16
  296. ID                                       : 20
  297. Format                                   : PGS
  298. Muxing mode                              : zlib
  299. Codec ID                                 : S_HDMV/PGS
  300. Codec ID/Info                            : Picture based subtitle format used on BDs/HD-DVDs
  301. Duration                                 : 2 h 2 min
  302. Bit rate                                 : 23.6 kb/s
  303. Count of elements                        : 1760
  304. Stream size                              : 20.6 MiB (0%)
  305. Title                                    : Swedish-PGS
  306. Language                                 : Swedish
  307. Default                                  : No
  308. Forced                                   : No

  309. Menu
  310. 00:00:00.000                             : en:Chapter 01
  311. 00:06:51.285                             : en:Chapter 02
  312. 00:14:07.012                             : en:Chapter 03
  313. 00:23:17.437                             : en:Chapter 04
  314. 00:29:37.192                             : en:Chapter 05
  315. 00:35:06.938                             : en:Chapter 06
  316. 00:44:07.227                             : en:Chapter 07
  317. 00:50:42.581                             : en:Chapter 08
  318. 00:56:17.791                             : en:Chapter 09
  319. 01:03:01.986                             : en:Chapter 10
  320. 01:11:16.563                             : en:Chapter 11
  321. 01:17:48.330                             : en:Chapter 12
  322. 01:27:02.175                             : en:Chapter 13
  323. 01:33:21.512                             : en:Chapter 14
  324. 01:40:50.669                             : en:Chapter 15
  325. 01:46:23.919                             : en:Chapter 16
  326. 01:52:49.053                             : en:Chapter 17
复制代码

惊奇队长/Marvel队长 Captain.Marvel.2019.2160p.BluRay.x265.10bit.SDR.DTS-HD.MA.TrueHD.7.1.Atmos-SWTYBLZ 20.62GB-2.png 惊奇队长/Marvel队长 Captain.Marvel.2019.2160p.BluRay.x265.10bit.SDR.DTS-HD.MA.TrueHD.7.1.Atmos-SWTYBLZ 20.62GB-4.png 惊奇队长/Marvel队长 Captain.Marvel.2019.2160p.BluRay.x265.10bit.SDR.DTS-HD.MA.TrueHD.7.1.Atmos-SWTYBLZ 20.62GB-5.png 惊奇队长/Marvel队长 Captain.Marvel.2019.2160p.BluRay.x265.10bit.SDR.DTS-HD.MA.TrueHD.7.1.Atmos-SWTYBLZ 20.62GB-6.png 惊奇队长/Marvel队长 Captain.Marvel.2019.2160p.BluRay.x265.10bit.SDR.DTS-HD.MA.TrueHD.7.1.Atmos-SWTYBLZ 20.62GB-7.png






本帖隐藏的下载地址需要VIP会员才可阅读,您需要升级才可阅读,点击这里升级VIP

回复

使用道具 举报

 成长值: 1290

级别:尊贵的会员

注册时间
2019-3-7
最后登录
2019-6-4
听众
6
收听
0
主题
0
蓝光币
82 枚
贡献
0 点
发表于 2019-6-4 00:28:22 | 显示全部楼层

楼主太厉害了!楼主,电影应该很好看我觉得中国高清电影网真是个好地方!
回复

使用道具 举报

级别:普通观众 Lv.2

注册时间
2019-5-25
最后登录
2019-6-25
听众
4
收听
0
主题
0
蓝光币
29 枚
贡献
0 点
QQ
发表于 2019-6-5 19:51:44 | 显示全部楼层
楼主发贴辛苦了,谢谢楼主分享!我觉得中国高清电影网是注册对了!
回复

使用道具 举报

 成长值: 340

级别:尊贵的会员

注册时间
2019-3-2
最后登录
2019-6-24
听众
7
收听
0
主题
0
蓝光币
11 枚
贡献
0 点
发表于 2019-6-9 19:40:10 | 显示全部楼层
楼主太厉害了!楼主,电影应该很好看
回复

使用道具 举报

级别:普通观众 Lv.2

注册时间
2018-5-8
最后登录
2019-6-23
听众
6
收听
0
主题
0
蓝光币
44 枚
贡献
0 点
QQ
发表于 2019-6-10 21:24:50 | 显示全部楼层
感谢楼主
回复

使用道具 举报

级别:普通观众 Lv.2

注册时间
2019-1-18
最后登录
2019-6-16
听众
6
收听
0
主题
0
蓝光币
53 枚
贡献
0 点
发表于 2019-6-11 00:35:05 | 显示全部楼层

我看不错噢 谢谢楼主!中国高清电影网越来越好!
回复

使用道具 举报

级别:初级观众 Lv.1

注册时间
2019-6-11
最后登录
2019-6-11
听众
4
收听
0
主题
0
蓝光币
2 枚
贡献
0 点
发表于 2019-6-11 12:28:47 | 显示全部楼层
谢谢分享!!@~!!@~
回复

使用道具 举报

级别:初级观众 Lv.1

注册时间
2019-6-20
最后登录
2019-6-20
听众
2
收听
0
主题
0
蓝光币
3 枚
贡献
0 点
QQ
发表于 5 天前 | 显示全部楼层
很好的片子啊!还是收个4K版本的吧
回复

使用道具 举报

*滑动验证:
懒得打字嘛,点击右侧快捷回复 【右侧内容,后台自定义】
您需要登录后才可以回帖 登录 | 立即注册

本版积分规则

QQ|Archiver|手机版|小黑屋| 中国高清网 |网站地图

GMT+8, 2019-6-25 19:29 , Processed in 0.356680 second(s), 48 queries .

Powered by HDchina X3.4

Copyright 2017-2019©HDchina.All right reserved

返回顶部 联系我们