你所知道的4K资源这里全部都有 4K电影 | 4K视频 | 4K壁纸 | 4K MV 怎么播放4K视频 | 4K电视演示片

教你玩转4K私人与家庭影院存储 NAS组装 | 黑群辉 家庭/影院Nas论坛

4K家庭影院信号源与视频设备知识 4K蓝光高清播放机 - 那个品牌好? 4K投影机论坛 | 4K电视机论坛

手把手教你搭建属于自己的家庭影院 4K家庭影院案例 | 家庭影院音频 4K家庭影院论坛

查看: 268|回复: 2

[剧情片] 你给的仇恨/黑暗中的星光 The.Hate.U.Give.2018.1080p.BluRay.REMUX.AVC.DTS-HD.MA.7.1-FGT 32.07GB

[复制链接]

 成长值: 1600

级别:资源管理组

注册时间
2017-10-20
最后登录
2019-6-18
听众
0
收听
0
主题
78694
蓝光币
27000 枚
贡献
3019 点
发表于 2019-1-12 23:28:34 | 显示全部楼层 |阅读模式

你给的冤仇/黑黑暗的星光 The.Hate.U.Give.2018.1080p.BluRay.REMUX.AVC.DTS-HD.MA.7.1-FGT 32.07GB-1.jpg
◎译  名 你给的冤仇 / 黑黑暗的星光 / 你的敌意
◎片  名 你给的冤仇 The Hate U Give
◎年  代 2018
◎国  家 美国
◎类  别 剧情 / 犯罪
◎语  言 英语
◎上映日期 2018-09-07(多伦多电影节) / 2018-10-19(美国)
◎IMDb评分  7.0/10 from 8,623 users
◎IMDb链接  http://www.imdb.com/title/tt5580266/
◎豆瓣评分 7.9/10 from 4065 users
◎豆瓣链接 https://movie.douban.com/subject/27139732/
◎片  长 133分钟
◎导  演 小乔治·提尔曼
◎主  演 阿曼德拉·斯坦伯格
      雷吉娜·赫尔
      罗素·霍恩斯比
      安东尼·麦凯
      K·J·阿帕
      伊萨·雷
      科曼
      阿尔吉·史姑娘
      塞布丽娜·卡彭特
      多米尼克·菲什巴克
      拉马尔·约翰逊
      梅根·劳利斯

◎简  介 

  基于Angela Thomas所著同名小说,聚焦种族题目和差人暴行。16岁黑人女配角Starr Carter某天早晨去加入派对,碰到了儿时最好的朋友Khalil,派对以后后者载她回家,两人在路上被一个差人拦下,Khalil被迫下车,随后差人朝徒手的Khalil开枪。此事很快成为全国头条,Khalil被描写为“大盗、毒贩”,而差人似乎并没有多大爱好展开观察。 一群抗议者走上陌头,将Starr居住的街区变成了战区,大师都尝试弄清楚到底发生了什么,而唯一晓得真相的只要Starr,她做了很多采访试图还Khalil明净,她说的话将决议差人是进牢狱还是被宣布无罪。

◎获奖情况 

  第24届美国批评家挑选电影奖 (2019)
  最好青少年演员(提名) 阿曼德拉·斯坦伯格

  第22届好莱坞电影奖 (2018)
  年度冲破女演员 阿曼德拉·斯坦伯格

  第17届华盛顿影评人协会奖 (2018)
  最好青少年表演(提名) 阿曼德拉·斯坦伯格

  第17届旧金山影评人协会奖 (2018)
  最好男配角(提名) 罗素·霍恩斯比


  1. Video
  2. ID                                       : 1
  3. Format                                   : AVC
  4. Format/Info                              : Advanced Video Codec
  5. Format profile                           : [url=/cdn-cgi/l/email-protection][email protected][/url]
  6. Format settings                          : CABAC / 2 Ref Frames
  7. Format settings, CABAC                   : Yes
  8. Format settings, ReFrames                : 2 frames
  9. Codec ID                                 : V_MPEG4/ISO/AVC
  10. Duration                                 : 2 h 13 min
  11. Bit rate mode                            : Variable
  12. Bit rate                                 : 26.7 Mb/s
  13. Width                                    : 1 920 pixels
  14. Height                                   : 1 080 pixels
  15. Display aspect ratio                     : 16:9
  16. Frame rate mode                          : Constant
  17. Frame rate                               : 23.976 (24000/1001) FPS
  18. Color space                              : YUV
  19. Chroma subsampling                       : 4:2:0
  20. Bit depth                                : 8 bits
  21. Scan type                                : Progressive
  22. Bits/(Pixel*Frame)                       : 0.537
  23. Stream size                              : 24.8 GiB (77%)
  24. Title                                    : The.Hate.U.Give.2018.1080p.BluRay.REMUX.AVC.DTS-HD.MA.7.1-FGT
  25. Language                                 : English
  26. Default                                  : No
  27. Forced                                   : No

  28. Audio #1
  29. ID                                       : 2
  30. Format                                   : DTS XLL
  31. Format/Info                              : Digital Theater Systems
  32. Commercial name                          : DTS-HD Master Audio
  33. Codec ID                                 : A_DTS
  34. Duration                                 : 2 h 13 min
  35. Bit rate mode                            : Variable
  36. Bit rate                                 : 4 545 kb/s
  37. Channel(s)                               : 8 channels
  38. Channel layout                           : C L R LFE Lb Rb Lss Rss
  39. Sampling rate                            : 48.0 kHz
  40. Frame rate                               : 93.750 FPS (512 SPF)
  41. Bit depth                                : 24 bits
  42. Compression mode                         : Lossless
  43. Stream size                              : 4.22 GiB (13%)
  44. Title                                    : The.Hate.U.Give.2018.1080p.BluRay.REMUX.AVC.DTS-HD.MA.7.1-FGT
  45. Language                                 : English
  46. Default                                  : Yes
  47. Forced                                   : No

  48. Audio #2
  49. ID                                       : 3
  50. Format                                   : DTS
  51. Format/Info                              : Digital Theater Systems
  52. Codec ID                                 : A_DTS
  53. Duration                                 : 2 h 13 min
  54. Bit rate mode                            : Constant
  55. Bit rate                                 : 1 509 kb/s
  56. Channel(s)                               : 6 channels
  57. Channel layout                           : C L R Ls Rs LFE
  58. Sampling rate                            : 48.0 kHz
  59. Frame rate                               : 93.750 FPS (512 SPF)
  60. Bit depth                                : 24 bits
  61. Compression mode                         : Lossy
  62. Stream size                              : 1.40 GiB (4%)
  63. Title                                    : The.Hate.U.Give.2018.1080p.BluRay.REMUX.AVC.DTS-HD.MA.7.1-FGT
  64. Language                                 : English
  65. Default                                  : No
  66. Forced                                   : No

  67. Audio #3
  68. ID                                       : 4
  69. Format                                   : AC-3
  70. Format/Info                              : Audio Coding 3
  71. Commercial name                          : Dolby Digital
  72. Codec ID                                 : A_AC3
  73. Duration                                 : 2 h 13 min
  74. Bit rate mode                            : Constant
  75. Bit rate                                 : 448 kb/s
  76. Channel(s)                               : 6 channels
  77. Channel layout                           : L R C LFE Ls Rs
  78. Sampling rate                            : 48.0 kHz
  79. Frame rate                               : 31.250 FPS (1536 SPF)
  80. Bit depth                                : 16 bits
  81. Compression mode                         : Lossy
  82. Stream size                              : 426 MiB (1%)
  83. Title                                    : The.Hate.U.Give.2018.1080p.BluRay.REMUX.AVC.DTS-HD.MA.7.1-FGT
  84. Language                                 : English
  85. Service kind                             : Complete Main
  86. Default                                  : No
  87. Forced                                   : No

  88. Audio #4
  89. ID                                       : 5
  90. Format                                   : AC-3
  91. Format/Info                              : Audio Coding 3
  92. Commercial name                          : Dolby Digital
  93. Codec ID                                 : A_AC3
  94. Duration                                 : 2 h 13 min
  95. Bit rate mode                            : Constant
  96. Bit rate                                 : 448 kb/s
  97. Channel(s)                               : 6 channels
  98. Channel layout                           : L R C LFE Ls Rs
  99. Sampling rate                            : 48.0 kHz
  100. Frame rate                               : 31.250 FPS (1536 SPF)
  101. Bit depth                                : 16 bits
  102. Compression mode                         : Lossy
  103. Stream size                              : 426 MiB (1%)
  104. Title                                    : The.Hate.U.Give.2018.1080p.BluRay.REMUX.AVC.DTS-HD.MA.7.1-FGT
  105. Language                                 : Spanish
  106. Service kind                             : Complete Main
  107. Default                                  : No
  108. Forced                                   : No

  109. Audio #5
  110. ID                                       : 6
  111. Format                                   : AC-3
  112. Format/Info                              : Audio Coding 3
  113. Commercial name                          : Dolby Digital
  114. Codec ID                                 : A_AC3
  115. Duration                                 : 2 h 13 min
  116. Bit rate mode                            : Constant
  117. Bit rate                                 : 448 kb/s
  118. Channel(s)                               : 6 channels
  119. Channel layout                           : L R C LFE Ls Rs
  120. Sampling rate                            : 48.0 kHz
  121. Frame rate                               : 31.250 FPS (1536 SPF)
  122. Bit depth                                : 16 bits
  123. Compression mode                         : Lossy
  124. Stream size                              : 426 MiB (1%)
  125. Title                                    : The.Hate.U.Give.2018.1080p.BluRay.REMUX.AVC.DTS-HD.MA.7.1-FGT
  126. Language                                 : French
  127. Service kind                             : Complete Main
  128. Default                                  : No
  129. Forced                                   : No

  130. Audio #6
  131. ID                                       : 7
  132. Format                                   : AC-3
  133. Format/Info                              : Audio Coding 3
  134. Commercial name                          : Dolby Digital
  135. Codec ID                                 : A_AC3
  136. Duration                                 : 2 h 13 min
  137. Bit rate mode                            : Constant
  138. Bit rate                                 : 224 kb/s
  139. Channel(s)                               : 2 channels
  140. Channel layout                           : L R
  141. Sampling rate                            : 48.0 kHz
  142. Frame rate                               : 31.250 FPS (1536 SPF)
  143. Bit depth                                : 16 bits
  144. Compression mode                         : Lossy
  145. Stream size                              : 213 MiB (1%)
  146. Title                                    : The.Hate.U.Give.2018.1080p.BluRay.REMUX.AVC.DTS-HD.MA.7.1-FGT
  147. Language                                 : English
  148. Service kind                             : Complete Main
  149. Default                                  : No
  150. Forced                                   : No

  151. Text #1
  152. ID                                       : 8
  153. Format                                   : PGS
  154. Muxing mode                              : zlib
  155. Codec ID                                 : S_HDMV/PGS
  156. Codec ID/Info                            : Picture based subtitle format used on BDs/HD-DVDs
  157. Duration                                 : 2 h 12 min
  158. Bit rate                                 : 53.6 kb/s
  159. Count of elements                        : 4912
  160. Stream size                              : 50.8 MiB (0%)
  161. Title                                    : English-PGS
  162. Language                                 : English
  163. Default                                  : Yes
  164. Forced                                   : No

  165. Text #2
  166. ID                                       : 9
  167. Format                                   : PGS
  168. Muxing mode                              : zlib
  169. Codec ID                                 : S_HDMV/PGS
  170. Codec ID/Info                            : Picture based subtitle format used on BDs/HD-DVDs
  171. Duration                                 : 2 h 12 min
  172. Bit rate                                 : 38.6 kb/s
  173. Count of elements                        : 3556
  174. Stream size                              : 36.5 MiB (0%)
  175. Title                                    : Spanish-PGS
  176. Language                                 : Spanish
  177. Default                                  : No
  178. Forced                                   : No

  179. Text #3
  180. ID                                       : 10
  181. Format                                   : PGS
  182. Muxing mode                              : zlib
  183. Codec ID                                 : S_HDMV/PGS
  184. Codec ID/Info                            : Picture based subtitle format used on BDs/HD-DVDs
  185. Duration                                 : 2 h 6 min
  186. Bit rate                                 : 181 b/s
  187. Count of elements                        : 14
  188. Stream size                              : 167 KiB (0%)
  189. Title                                    : Spanish-FORCED-PGS
  190. Language                                 : Spanish
  191. Default                                  : No
  192. Forced                                   : No

  193. Text #4
  194. ID                                       : 11
  195. Format                                   : PGS
  196. Muxing mode                              : zlib
  197. Codec ID                                 : S_HDMV/PGS
  198. Codec ID/Info                            : Picture based subtitle format used on BDs/HD-DVDs
  199. Duration                                 : 2 h 12 min
  200. Bit rate                                 : 41.7 kb/s
  201. Count of elements                        : 3832
  202. Stream size                              : 39.4 MiB (0%)
  203. Title                                    : French-PGS
  204. Language                                 : French
  205. Default                                  : No
  206. Forced                                   : No

  207. Text #5
  208. ID                                       : 12
  209. Format                                   : PGS
  210. Muxing mode                              : zlib
  211. Codec ID                                 : S_HDMV/PGS
  212. Codec ID/Info                            : Picture based subtitle format used on BDs/HD-DVDs
  213. Duration                                 : 2 h 9 min
  214. Bit rate                                 : 611 b/s
  215. Count of elements                        : 58
  216. Stream size                              : 581 KiB (0%)
  217. Title                                    : French-PGS
  218. Language                                 : French
  219. Default                                  : No
  220. Forced                                   : No

  221. Text #6
  222. ID                                       : 13
  223. Format                                   : PGS
  224. Muxing mode                              : zlib
  225. Codec ID                                 : S_HDMV/PGS
  226. Codec ID/Info                            : Picture based subtitle format used on BDs/HD-DVDs
  227. Duration                                 : 2 h 12 min
  228. Bit rate                                 : 81.7 kb/s
  229. Count of elements                        : 5222
  230. Stream size                              : 77.6 MiB (0%)
  231. Title                                    : English-COMMENTARY-PGS
  232. Language                                 : English
  233. Default                                  : No
  234. Forced                                   : No

  235. Text #7
  236. ID                                       : 14
  237. Format                                   : PGS
  238. Muxing mode                              : zlib
  239. Codec ID                                 : S_HDMV/PGS
  240. Codec ID/Info                            : Picture based subtitle format used on BDs/HD-DVDs
  241. Duration                                 : 2 h 12 min
  242. Bit rate                                 : 71.2 kb/s
  243. Count of elements                        : 5134
  244. Stream size                              : 67.7 MiB (0%)
  245. Title                                    : Spanish-COMMENTARY-PGS
  246. Language                                 : Spanish
  247. Default                                  : No
  248. Forced                                   : No

  249. Text #8
  250. ID                                       : 15
  251. Format                                   : PGS
  252. Muxing mode                              : zlib
  253. Codec ID                                 : S_HDMV/PGS
  254. Codec ID/Info                            : Picture based subtitle format used on BDs/HD-DVDs
  255. Duration                                 : 2 h 12 min
  256. Bit rate                                 : 76.9 kb/s
  257. Count of elements                        : 5248
  258. Stream size                              : 73.2 MiB (0%)
  259. Title                                    : French-COMMENTARY-PGS
  260. Language                                 : French
  261. Default                                  : No
  262. Forced                                   : No

  263. Menu
  264. 00:00:00.000                             : en:Chapter 01
  265. 00:03:55.401                             : en:Chapter 02
  266. 00:08:17.914                             : en:Chapter 03
  267. 00:13:13.876                             : en:Chapter 04
  268. 00:19:32.129                             : en:Chapter 05
  269. 00:24:48.111                             : en:Chapter 06
  270. 00:29:34.314                             : en:Chapter 07
  271. 00:34:53.883                             : en:Chapter 08
  272. 00:40:09.532                             : en:Chapter 09
  273. 00:45:05.285                             : en:Chapter 10
  274. 00:50:09.214                             : en:Chapter 11
  275. 00:58:27.587                             : en:Chapter 12
  276. 01:03:58.376                             : en:Chapter 13
  277. 01:10:00.696                             : en:Chapter 14
  278. 01:14:51.278                             : en:Chapter 15
  279. 01:19:50.786                             : en:Chapter 16
  280. 01:27:09.599                             : en:Chapter 17
  281. 01:32:11.484                             : en:Chapter 18
  282. 01:37:36.225                             : en:Chapter 19
  283. 01:43:59.066                             : en:Chapter 20
  284. 01:49:39.155                             : en:Chapter 21
  285. 01:56:20.431                             : en:Chapter 22
  286. 01:57:59.822                             : en:Chapter 23
  287. 02:03:50.965                             : en:Chapter 24
复制代码

复制代码

你给的冤仇/黑黑暗的星光 The.Hate.U.Give.2018.1080p.BluRay.REMUX.AVC.DTS-HD.MA.7.1-FGT 32.07GB-2.png 你给的冤仇/黑黑暗的星光 The.Hate.U.Give.2018.1080p.BluRay.REMUX.AVC.DTS-HD.MA.7.1-FGT 32.07GB-3.png 你给的冤仇/黑黑暗的星光 The.Hate.U.Give.2018.1080p.BluRay.REMUX.AVC.DTS-HD.MA.7.1-FGT 32.07GB-4.png





回复

使用道具 举报

级别:荣升主角 Lv.5

注册时间
2018-5-27
最后登录
2019-6-18
听众
9
收听
0
主题
0
蓝光币
121 枚
贡献
0 点
发表于 2019-1-13 19:47:34 | 显示全部楼层
感谢分享!
回复

使用道具 举报

级别:群众演员 Lv.3

注册时间
2018-11-1
最后登录
2019-2-22
听众
4
收听
0
主题
0
蓝光币
327 枚
贡献
0 点
发表于 2019-1-18 10:42:21 | 显示全部楼层

楼主太厉害了!楼主,电影应该很好看我觉得中国高清电影网真是个好地方!
回复

使用道具 举报

*滑动验证:
懒得打字嘛,点击右侧快捷回复 【右侧内容,后台自定义】
您需要登录后才可以回帖 登录 | 立即注册

本版积分规则

QQ|Archiver|手机版|小黑屋| 中国高清网 |网站地图

GMT+8, 2019-6-18 19:05 , Processed in 0.229297 second(s), 44 queries .

Powered by HDchina X3.4

Copyright 2017-2019©HDchina.All right reserved

返回顶部 联系我们