你所知道的4K资源这里全部都有 4K电影 | 4K视频 | 4K壁纸 | 4K MV 怎么播放4K视频 | 4K电视演示片

教你玩转4K私人与家庭影院存储 NAS组装 | 黑群辉 家庭/影院Nas论坛

4K家庭影院信号源与视频设备知识 4K蓝光高清播放机 - 那个品牌好? 4K投影机论坛 | 4K电视机论坛

手把手教你搭建属于自己的家庭影院 4K家庭影院案例 | 家庭影院音频 4K家庭影院论坛

查看: 36|回复: 1

[剧情片] 恶魔虚像/飞车鬼影 The.Man.Who.Haunted.Himself.1970.1080p.BluRay.REMUX.AVC.LPCM.2.0-FGT 17.61GB

[复制链接]

 成长值: 70

级别:资源管理组

UID
1
注册时间
2017-10-20
最后登录
2019-1-17
听众
0
收听
0
主题
73857
蓝光币
114334 枚
贡献
143666 点
发表于 6 天前 | 显示全部楼层 |阅读模式

恶魔虚像/飞车鬼影 The.Man.Who.Haunted.Himself.1970.1080p.BluRay.REMUX.AVC.LPCM.2.0-FGT 17.61GB-1.jpg
◎译  名 恶魔虚像 / 飞车鬼影 / 魔影飞车
◎片  名 恶魔虚像 The Man Who Haunted Himself
◎年  代 1970
◎国  家 英国
◎类  别 剧情 / 悬疑 / 惊悚 / 可骇 / 奇异
◎语  言 英语
◎上映日期 1971-05-31
◎IMDb评分  6.4/10 from 1,710 users
◎IMDb链接  http://www.imdb.com/title/tt0066053/
◎豆瓣评分 7.0/10 from 50 users
◎豆瓣链接 https://movie.douban.com/subject/1306684/
◎片  长 89 分钟
◎导  演 巴兹尔·迪尔登
◎主  演 罗杰.摩尔
      弗雷.迪琼斯

◎简  介 

  有一天早晨,哈罗德一小我驾驶车辆外出,不知过了多久发生了一路车祸,当他醒来时发现自己正躺在医院里。今后他的生活发生天翻地覆的变化,天天生活 在惊慌、胆寒、不安当中,时哭时笑,难道他酿成神经病患者了吗?......


  1. Video
  2. ID                                       : 1
  3. Format                                   : AVC
  4. Format/Info                              : Advanced Video Codec
  5. Format profile                           : [url=/cdn-cgi/l/email-protection][email protected][/url]
  6. Format settings                          : CABAC / 4 Ref Frames
  7. Format settings, CABAC                   : Yes
  8. Format settings, ReFrames                : 4 frames
  9. Codec ID                                 : V_MPEG4/ISO/AVC
  10. Duration                                 : 1 h 33 min
  11. Bit rate mode                            : Variable
  12. Bit rate                                 : 23.0 Mb/s
  13. Maximum bit rate                         : 29.0 Mb/s
  14. Width                                    : 1 920 pixels
  15. Height                                   : 1 080 pixels
  16. Display aspect ratio                     : 16:9
  17. Frame rate mode                          : Constant
  18. Frame rate                               : 24.000 FPS
  19. Standard                                 : NTSC
  20. Color space                              : YUV
  21. Chroma subsampling                       : 4:2:0
  22. Bit depth                                : 8 bits
  23. Scan type                                : Progressive
  24. Bits/(Pixel*Frame)                       : 0.462
  25. Stream size                              : 15.1 GiB (86%)
  26. Title                                    : The.Man.Who.Haunted.Himself.1970.1080p.BluRay.REMUX.AVC.LPCM.2.0-FGT
  27. Language                                 : English
  28. Default                                  : No
  29. Forced                                   : No
  30. Color range                              : Limited
  31. Color primaries                          : BT.709
  32. Transfer characteristics                 : BT.709
  33. Matrix coefficients                      : BT.709

  34. Audio #1
  35. ID                                       : 2
  36. Format                                   : PCM
  37. Format settings                          : Little / Signed
  38. Codec ID                                 : A_PCM/INT/LIT
  39. Duration                                 : 1 h 33 min
  40. Bit rate mode                            : Constant
  41. Bit rate                                 : 2 304 kb/s
  42. Channel(s)                               : 2 channels
  43. Sampling rate                            : 48.0 kHz
  44. Frame rate                               : 30.000 FPS (1600 SPF)
  45. Bit depth                                : 24 bits
  46. Stream size                              : 1.51 GiB (9%)
  47. Title                                    : The.Man.Who.Haunted.Himself.1970.1080p.BluRay.REMUX.AVC.LPCM.2.0-FGT
  48. Language                                 : English
  49. Default                                  : Yes
  50. Forced                                   : No

  51. Audio #2
  52. ID                                       : 3
  53. Format                                   : PCM
  54. Format settings                          : Little / Signed
  55. Codec ID                                 : A_PCM/INT/LIT
  56. Duration                                 : 1 h 33 min
  57. Bit rate mode                            : Constant
  58. Bit rate                                 : 1 536 kb/s
  59. Channel(s)                               : 2 channels
  60. Sampling rate                            : 48.0 kHz
  61. Frame rate                               : 30.000 FPS (1600 SPF)
  62. Bit depth                                : 16 bits
  63. Stream size                              : 1.01 GiB (6%)
  64. Title                                    : The.Man.Who.Haunted.Himself.1970.1080p.BluRay.REMUX.AVC.LPCM.2.0-FGT
  65. Language                                 : English
  66. Default                                  : No
  67. Forced                                   : No

  68. Text
  69. ID                                       : 4
  70. Format                                   : PGS
  71. Muxing mode                              : zlib
  72. Codec ID                                 : S_HDMV/PGS
  73. Codec ID/Info                            : Picture based subtitle format used on BDs/HD-DVDs
  74. Duration                                 : 1 h 32 min
  75. Bit rate                                 : 23.0 kb/s
  76. Count of elements                        : 1977
  77. Stream size                              : 15.2 MiB (0%)
  78. Title                                    : English-PGS
  79. Language                                 : English
  80. Default                                  : Yes
  81. Forced                                   : No

  82. Menu
  83. 00:00:00.000                             : en:Chapter 01
  84. 00:07:13.500                             : en:Chapter 02
  85. 00:15:53.666                             : en:Chapter 03
  86. 00:23:33.375                             : en:Chapter 04
  87. 00:29:09.916                             : en:Chapter 05
  88. 00:35:42.708                             : en:Chapter 06
  89. 00:40:44.000                             : en:Chapter 07
  90. 00:44:48.916                             : en:Chapter 08
  91. 00:54:40.166                             : en:Chapter 09
  92. 01:03:44.625                             : en:Chapter 10
  93. 01:12:50.916                             : en:Chapter 11
  94. 01:19:47.041                             : en:Chapter 12
复制代码

复制代码

恶魔虚像/飞车鬼影 The.Man.Who.Haunted.Himself.1970.1080p.BluRay.REMUX.AVC.LPCM.2.0-FGT 17.61GB-2.png 恶魔虚像/飞车鬼影 The.Man.Who.Haunted.Himself.1970.1080p.BluRay.REMUX.AVC.LPCM.2.0-FGT 17.61GB-3.png 恶魔虚像/飞车鬼影 The.Man.Who.Haunted.Himself.1970.1080p.BluRay.REMUX.AVC.LPCM.2.0-FGT 17.61GB-4.png





回复

使用道具 举报

级别:专业龙套 Lv.4

UID
4064
注册时间
2018-5-27
最后登录
2019-1-13
听众
3
收听
0
主题
0
蓝光币
1 枚
贡献
0 点
发表于 6 天前 | 显示全部楼层
感谢分享!
回复

使用道具 举报

懒得打字嘛,点击右侧快捷回复 【右侧内容,后台自定义】
您需要登录后才可以回帖 登录 | 立即注册

本版积分规则

QQ|Archiver|手机版|小黑屋|中国高清网 |网站地图

GMT+8, 2019-1-17 12:49 , Processed in 0.121487 second(s), 41 queries .

Powered by HDchina X3.4

Copyright 2017-2018©HDchina.All right reserved

返回顶部 联系我们