你所知道的4K资源这里全部都有 4K电影 | 4K视频 | 4K壁纸 | 4K MV 怎么播放4K视频 | 4K电视演示片

教你玩转4K私人与家庭影院存储 NAS组装 | 黑群辉 家庭/影院Nas论坛

4K家庭影院信号源与视频设备知识 4K蓝光高清播放机 - 那个品牌好? 4K投影机论坛 | 4K电视机论坛

手把手教你搭建属于自己的家庭影院 4K家庭影院案例 | 家庭影院音频 4K家庭影院论坛

查看: 157|回复: 6

[剧情片] 车祸 Fender.Bender.2016.1080p.BluRay.x264-SADPANDA 6.55GB

[复制链接]

 成长值: 1600

级别:资源管理组

注册时间
2017-10-20
最后登录
2019-6-18
听众
0
收听
0
主题
78701
蓝光币
27000 枚
贡献
3026 点
发表于 2019-1-11 10:03:49 | 显示全部楼层 |阅读模式

车祸 Fender.Bender.2016.1080p.BluRay.x264-SADPANDA 6.55GB-1.jpg
◎译  名 车祸
◎片  名 车祸 Fender Bender
◎年  代 2016
◎国  家 美国
◎类  别 
◎语  言 英语
◎上映日期 2016-05-23(美国)
◎IMDb评分  5.0/10 from 1,898 users
◎IMDb链接  http://www.imdb.com/title/tt5131906/
◎豆瓣评分 3.8/10 from 55 users
◎豆瓣链接 https://movie.douban.com/subject/26888732/
◎片  长 无片长信息
◎导  演 Mark Pavia
◎主  演 卡西迪·弗里曼
      麦肯兹·韦加

◎简  介 

  In a small New Mexico town, a 17-year-old high school girl who just got her driver's license gets into her first fender bender, innocently exchanging her personal information with an apologetic stranger. Later that stormy night, she is joined in her desolate suburban home by a couple of her school friends who try their best to make a night out of it, only to be visited by the stranger she so willingly handed all of her information to -- a terrifying and bizarre serial killer who stalks the country's endless miles of roads and streets with his old rusty car, hungrily searching for his next unsuspecting victim.


  1. Video
  2. ID                                       : 1
  3. Format                                   : AVC
  4. Format/Info                              : Advanced Video Codec
  5. Format profile                           : [url=/cdn-cgi/l/email-protection][email protected][/url]
  6. Format settings, CABAC                   : Yes
  7. Format settings, ReFrames                : 5 frames
  8. Codec ID                                 : V_MPEG4/ISO/AVC
  9. Duration                                 : 1h 30mn
  10. Bit rate                                 : 8 807 Kbps
  11. Width                                    : 1 920 pixels
  12. Height                                   : 800 pixels
  13. Display aspect ratio                     : 2.40:1
  14. Frame rate mode                          : Constant
  15. Frame rate                               : 23.976 (24000/1001) fps
  16. Color space                              : YUV
  17. Chroma subsampling                       : 4:2:0
  18. Bit depth                                : 8 bits
  19. Scan type                                : Progressive
  20. Bits/(Pixel*Frame)                       : 0.239
  21. Stream size                              : 5.59 GiB (85%)
  22. Writing library                          : x264 core 148 r2721 72d53ab
  23. Encoding settings                        : cabac=1 / ref=5 / deblock=1:-3:-3 / analyse=0x3:0x113 / me=umh / subme=8 / psy=1 / psy_rd=1.00:0.25 / mixed_ref=1 / me_range=24 / chroma_me=1 / trellis=1 / 8x8dct=1 / cqm=0 / deadzone=21,11 / fast_pskip=1 / chroma_qp_offset=-4 / threads=24 / lookahead_threads=4 / sliced_threads=0 / nr=0 / decimate=1 / interlaced=0 / bluray_compat=0 / constrained_intra=0 / bframes=3 / b_pyramid=2 / b_adapt=1 / b_bias=0 / direct=3 / weightb=1 / open_gop=0 / weightp=2 / keyint=240 / keyint_min=24 / scenecut=40 / intra_refresh=0 / rc_lookahead=50 / rc=2pass / mbtree=1 / bitrate=8807 / ratetol=1.0 / qcomp=0.60 / qpmin=0 / qpmax=69 / qpstep=4 / cplxblur=20.0 / qblur=0.5 / ip_ratio=1.40 / aq=1:0.75
  24. Default                                  : Yes
  25. Forced                                   : No

  26. Audio
  27. ID                                       : 2
  28. Format                                   : DTS
  29. Format/Info                              : Digital Theater Systems
  30. Mode                                     : 16
  31. Format settings, Endianness              : Big
  32. Codec ID                                 : A_DTS
  33. Duration                                 : 1h 30mn
  34. Bit rate mode                            : Constant
  35. Bit rate                                 : 1 509 Kbps
  36. Channel(s)                               : 6 channels
  37. Channel positions                        : Front: L C R, Side: L R, LFE
  38. Sampling rate                            : 48.0 KHz
  39. Frame rate                               : 93.750 fps (512 spf)
  40. Bit depth                                : 24 bits
  41. Compression mode                         : Lossy
  42. Stream size                              : 981 MiB (15%)
  43. Language                                 : English
  44. Default                                  : Yes
  45. Forced                                   : No

  46. Menu
  47. 00:00:00.000                             : en:00:00:00.000
  48. 00:08:07.946                             : en:00:08:07.946
  49. 00:13:44.490                             : en:00:13:44.490
  50. 00:20:45.119                             : en:00:20:45.119
  51. 00:26:10.861                             : en:00:26:10.861
  52. 00:31:05.822                             : en:00:31:05.822
  53. 00:39:40.253                             : en:00:39:40.253
  54. 00:42:41.392                             : en:00:42:41.392
  55. 00:49:19.540                             : en:00:49:19.540
  56. 00:55:54.226                             : en:00:55:54.226
  57. 01:06:18.391                             : en:01:06:18.391
  58. 01:17:53.377                             : en:01:17:53.377
复制代码

复制代码

车祸 Fender.Bender.2016.1080p.BluRay.x264-SADPANDA 6.55GB-2.jpg





回复

使用道具 举报

级别:专业龙套 Lv.4

注册时间
2018-10-24
最后登录
2019-4-23
听众
8
收听
0
主题
0
蓝光币
635 枚
贡献
0 点
QQ
发表于 2019-1-11 14:15:04 | 显示全部楼层

楼主太厉害了!楼主,电影应该很好看我觉得中国高清电影网真是个好地方!
回复

使用道具 举报

级别:群众演员 Lv.3

注册时间
2019-1-11
最后登录
2019-6-3
听众
5
收听
0
主题
0
蓝光币
113 枚
贡献
0 点
QQ
发表于 2019-1-11 16:02:31 | 显示全部楼层
电影应该很好看我觉得中国高清电影网真是个好地方!
回复

使用道具 举报

级别:普通观众 Lv.2

注册时间
2018-1-21
最后登录
2019-6-15
听众
3
收听
0
主题
0
蓝光币
1 枚
贡献
0 点
发表于 2019-1-13 10:10:26 | 显示全部楼层
车祸 Fender.Bender.2016.1080p.BluRay.x264-SADPANDA 6.55GB
回复

使用道具 举报

级别:群众演员 Lv.3

注册时间
2019-1-17
最后登录
2019-4-22
听众
4
收听
0
主题
0
蓝光币
164 枚
贡献
0 点
发表于 2019-1-17 16:29:18 | 显示全部楼层

我看不错噢 谢谢楼主!中国高清电影网越来越好!
回复

使用道具 举报

级别:群众演员 Lv.3

注册时间
2018-8-11
最后登录
2019-3-28
听众
6
收听
0
主题
0
蓝光币
222 枚
贡献
0 点
发表于 2019-1-19 16:39:00 | 显示全部楼层

这东西我收了!谢谢楼主!中国高清电影网真好!
回复

使用道具 举报

级别:专业龙套 Lv.4

注册时间
2019-1-21
最后登录
2019-2-17
听众
4
收听
0
主题
0
蓝光币
389 枚
贡献
0 点
发表于 2019-2-12 10:31:36 | 显示全部楼层
楼主发贴辛苦了,谢谢楼主分享!我觉得中国高清电影网是注册对了!
回复

使用道具 举报

*滑动验证:
懒得打字嘛,点击右侧快捷回复 【右侧内容,后台自定义】
您需要登录后才可以回帖 登录 | 立即注册

本版积分规则

QQ|Archiver|手机版|小黑屋| 中国高清网 |网站地图

GMT+8, 2019-6-18 19:18 , Processed in 0.171891 second(s), 47 queries .

Powered by HDchina X3.4

Copyright 2017-2019©HDchina.All right reserved

返回顶部 联系我们