你所知道的4K资源这里全部都有 4K电影 | 4K视频 | 4K壁纸 | 4K MV 怎么播放4K视频 | 4K电视演示片

教你玩转4K私人与家庭影院存储 NAS组装 | 黑群辉 家庭/影院Nas论坛

4K家庭影院信号源与视频设备知识 4K蓝光高清播放机 - 那个品牌好? 4K投影机论坛 | 4K电视机论坛

手把手教你搭建属于自己的家庭影院 4K家庭影院案例 | 家庭影院音频 4K家庭影院论坛

查看: 119|回复: 4

[剧情片] 遗骸 Remains.2011.LIMITED.1080p.BluRay.x264-VETO 6.55GB

[复制链接]

 成长值: 1600

级别:资源管理组

注册时间
2017-10-20
最后登录
2019-6-18
听众
0
收听
0
主题
78692
蓝光币
26994 枚
贡献
3017 点
发表于 2019-1-11 10:03:30 | 显示全部楼层 |阅读模式

遗骸 Remains.2011.LIMITED.1080p.BluRay.x264-VETO 6.55GB-1.jpg
◎译  名 遗骸 / Steve Niles' Remains
◎片  名 遗骸 Remains
◎年  代 2012
◎国  家 美国
◎类  别 剧情 / 行动 / 可骇
◎语  言 英语
◎上映日期 无尚映时候
◎IMDb评分  4.3/10 from 1,887 users
◎IMDb链接  http://www.imdb.com/title/tt1870527/
◎豆瓣评分 5.0/10 from 372 users
◎豆瓣链接 https://movie.douban.com/subject/11604470/
◎片  长 无片长信息
◎导  演 科林·塞斯
◎主  演 米克·休斯
      兰斯·莱迪克
      格兰特·鲍尔

◎简  介 

  遗骸/史蒂夫奈尔斯的尸体本片按照IDW出书的图画小说写的《史蒂夫·奈尔斯(30天夜)》。仍然是一个使人毛骨悚然的postapocalyptic内华达乡镇诺市,一个希奇的核尝试变乱,削减的生齿占天下生齿的大大都僵尸的幸存者。该团体追求庇护,在一个空置的赌场和打架。


  1. Video
  2. ID                                       : 1
  3. Format                                   : AVC
  4. Format/Info                              : Advanced Video Codec
  5. Format profile                           : [url=/cdn-cgi/l/email-protection][email protected][/url]
  6. Format settings, CABAC                   : Yes
  7. Format settings, ReFrames                : 4 frames
  8. Codec ID                                 : V_MPEG4/ISO/AVC
  9. Duration                                 : 1h 28mn
  10. Bit rate                                 : 9 085 Kbps
  11. Width                                    : 1 920 pixels
  12. Height                                   : 1 080 pixels
  13. Display aspect ratio                     : 16:9
  14. Frame rate mode                          : Constant
  15. Frame rate                               : 23.976 (24000/1001) fps
  16. Color space                              : YUV
  17. Chroma subsampling                       : 4:2:0
  18. Bit depth                                : 8 bits
  19. Scan type                                : Progressive
  20. Bits/(Pixel*Frame)                       : 0.183
  21. Stream size                              : 5.49 GiB (84%)
  22. Writing library                          : x264 core 130 r2273 b3065e6
  23. Encoding settings                        : cabac=1 / ref=4 / deblock=1:0:0 / analyse=0x3:0x133 / me=umh / subme=7 / psy=1 / psy_rd=1.00:0.00 / mixed_ref=1 / me_range=16 / chroma_me=1 / trellis=1 / 8x8dct=1 / cqm=0 / deadzone=21,11 / fast_pskip=0 / chroma_qp_offset=-2 / threads=18 / lookahead_threads=3 / sliced_threads=0 / nr=0 / decimate=1 / interlaced=fake / bluray_compat=0 / constrained_intra=0 / bframes=3 / b_pyramid=2 / b_adapt=1 / b_bias=0 / direct=1 / weightb=1 / open_gop=0 / weightp=2 / keyint=240 / keyint_min=23 / scenecut=40 / intra_refresh=0 / rc_lookahead=40 / rc=2pass / mbtree=1 / bitrate=9085 / ratetol=1.0 / qcomp=0.60 / qpmin=10 / qpmax=69 / qpstep=4 / cplxblur=20.0 / qblur=0.5 / ip_ratio=1.40 / aq=1:1.00
  24. Language                                 : English
  25. Default                                  : Yes
  26. Forced                                   : No

  27. Audio
  28. ID                                       : 2
  29. Format                                   : DTS
  30. Format/Info                              : Digital Theater Systems
  31. Mode                                     : 16
  32. Format settings, Endianness              : Big
  33. Codec ID                                 : A_DTS
  34. Duration                                 : 1h 28mn
  35. Bit rate mode                            : Constant
  36. Bit rate                                 : 1 509 Kbps
  37. Channel(s)                               : 6 channels
  38. Channel(s)_Original                      : 2 channels
  39. Channel positions                        : Front: L R
  40. Sampling rate                            : 48.0 KHz
  41. Frame rate                               : 93.750 fps (512 spf)
  42. Bit depth                                : 24 bits
  43. Compression mode                         : Lossy
  44. Stream size                              : 956 MiB (14%)
  45. Language                                 : English
  46. Default                                  : Yes
  47. Forced                                   : No

  48. Menu
  49. 00:00:00.000                             : en:00:00:00.000
  50. 00:06:59.961                             : en:00:06:59.961
  51. 00:13:59.964                             : en:00:13:59.964
  52. 00:20:59.967                             : en:00:20:59.967
  53. 00:27:59.928                             : en:00:27:59.928
  54. 00:34:59.931                             : en:00:34:59.931
  55. 00:41:59.934                             : en:00:41:59.934
  56. 00:48:59.895                             : en:00:48:59.895
  57. 00:55:59.898                             : en:00:55:59.898
  58. 01:02:59.942                             : en:01:02:59.942
  59. 01:09:59.945                             : en:01:09:59.945
  60. 01:16:59.906                             : en:01:16:59.906
  61. 01:28:32.181                             : en:01:28:32.181
复制代码

复制代码

遗骸 Remains.2011.LIMITED.1080p.BluRay.x264-VETO 6.55GB-2.png 遗骸 Remains.2011.LIMITED.1080p.BluRay.x264-VETO 6.55GB-3.png 遗骸 Remains.2011.LIMITED.1080p.BluRay.x264-VETO 6.55GB-4.png 遗骸 Remains.2011.LIMITED.1080p.BluRay.x264-VETO 6.55GB-5.png 遗骸 Remains.2011.LIMITED.1080p.BluRay.x264-VETO 6.55GB-6.png 遗骸 Remains.2011.LIMITED.1080p.BluRay.x264-VETO 6.55GB-7.png





回复

使用道具 举报

级别:群众演员 Lv.3

注册时间
2019-1-11
最后登录
2019-6-3
听众
5
收听
0
主题
0
蓝光币
113 枚
贡献
0 点
QQ
发表于 2019-1-11 16:03:11 | 显示全部楼层
有点类似早期的福克斯老电影
回复

使用道具 举报

级别:专业龙套 Lv.4

注册时间
2019-1-17
最后登录
2019-6-18
听众
6
收听
0
主题
0
蓝光币
413 枚
贡献
0 点
QQ
发表于 2019-1-17 20:21:15 | 显示全部楼层

楼主太厉害了!楼主,电影应该很好看我觉得中国高清电影网真是个好地方!
回复

使用道具 举报

级别:普通观众 Lv.2

注册时间
2019-1-18
最后登录
2019-6-15
听众
5
收听
0
主题
0
蓝光币
35 枚
贡献
0 点
发表于 2019-1-18 23:59:19 | 显示全部楼层
楼主发贴辛苦了,谢谢楼主分享!我觉得中国高清电影网是注册对了!
回复

使用道具 举报

级别:专业龙套 Lv.4

注册时间
2019-1-21
最后登录
2019-2-17
听众
4
收听
0
主题
0
蓝光币
389 枚
贡献
0 点
发表于 2019-2-12 10:32:11 | 显示全部楼层
楼主发贴辛苦了,谢谢楼主分享!我觉得中国高清电影网是注册对了!
回复

使用道具 举报

*滑动验证:
懒得打字嘛,点击右侧快捷回复 【右侧内容,后台自定义】
您需要登录后才可以回帖 登录 | 立即注册

本版积分规则

QQ|Archiver|手机版|小黑屋| 中国高清网 |网站地图

GMT+8, 2019-6-18 18:42 , Processed in 0.136374 second(s), 47 queries .

Powered by HDchina X3.4

Copyright 2017-2019©HDchina.All right reserved

返回顶部 联系我们