你所知道的4K资源这里全部都有 4K电影 | 4K视频 | 4K壁纸 | 4K MV 怎么播放4K视频 | 4K电视演示片

教你玩转4K私人与家庭影院存储 NAS组装 | 黑群辉 家庭/影院Nas论坛

4K家庭影院信号源与视频设备知识 4K蓝光高清播放机 - 那个品牌好? 4K投影机论坛 | 4K电视机论坛

手把手教你搭建属于自己的家庭影院 4K家庭影院案例 | 家庭影院音频 4K家庭影院论坛

查看: 147|回复: 2

[惊悚片] 抉择/选择 The.Chosen.2015.1080p.BluRay.x264-GUACAMOLE 6.56GB

[复制链接]

 成长值: 1600

级别:资源管理组

注册时间
2017-10-20
最后登录
2019-6-18
听众
0
收听
0
主题
78700
蓝光币
27000 枚
贡献
3025 点
发表于 2019-1-11 10:02:43 | 显示全部楼层 |阅读模式

决定/挑选 The.Chosen.2015.1080p.BluRay.x264-GUACAMOLE 6.56GB-1.jpg
◎译  名 决定 / 挑选 / 猎物
◎片  名 决定 The Chosen
◎年  代 2015
◎国  家 美国
◎类  别 惊悚
◎语  言 英语
◎上映日期 2015-07-24
◎IMDb评分  3.6/10 from 1,932 users
◎IMDb链接  http://www.imdb.com/title/tt4175888/
◎豆瓣评分 今朝无人评价
◎豆瓣链接 https://movie.douban.com/subject/26383966/
◎片  长 68分钟
◎导  演 Ben Jehoshua
◎主  演 凯恩·罗利
      伊丽莎白·基纳
      Angelica Chitwood
      克里斯·加恩
      Dayna Devon
      汉娜·穆雷

◎简  介 

  When a child-stealing demon attaches itself to a little girl, her family is thrust into a battle against time in order to save the girl and send the demon back to hell.


  1. Video
  2. ID                                       : 1
  3. Format                                   : AVC
  4. Format/Info                              : Advanced Video Codec
  5. Format profile                           : [url=/cdn-cgi/l/email-protection][email protected][/url]
  6. Format settings, CABAC                   : Yes
  7. Format settings, ReFrames                : 4 frames
  8. Codec ID                                 : V_MPEG4/ISO/AVC
  9. Duration                                 : 1h 28mn
  10. Bit rate                                 : 9 122 Kbps
  11. Width                                    : 1 920 pixels
  12. Height                                   : 1 080 pixels
  13. Display aspect ratio                     : 16:9
  14. Frame rate mode                          : Constant
  15. Frame rate                               : 23.976 (24000/1001) fps
  16. Color space                              : YUV
  17. Chroma subsampling                       : 4:2:0
  18. Bit depth                                : 8 bits
  19. Scan type                                : Progressive
  20. Bits/(Pixel*Frame)                       : 0.183
  21. Stream size                              : 5.62 GiB (86%)
  22. Writing library                          : x264 core 148 r2705 3f5ed56
  23. Encoding settings                        : cabac=1 / ref=4 / deblock=1:0:0 / analyse=0x3:0x113 / me=umh / subme=7 / psy=1 / psy_rd=1.00:0.00 / mixed_ref=1 / me_range=16 / chroma_me=1 / trellis=1 / 8x8dct=1 / cqm=0 / deadzone=21,11 / fast_pskip=0 / chroma_qp_offset=-2 / threads=12 / lookahead_threads=2 / sliced_threads=0 / nr=0 / decimate=1 / interlaced=0 / bluray_compat=0 / constrained_intra=0 / bframes=3 / b_pyramid=2 / b_adapt=2 / b_bias=0 / direct=3 / weightb=1 / open_gop=0 / weightp=2 / keyint=250 / keyint_min=23 / scenecut=40 / intra_refresh=0 / rc_lookahead=50 / rc=2pass / mbtree=1 / bitrate=9122 / ratetol=1.0 / qcomp=0.60 / qpmin=0 / qpmax=69 / qpstep=4 / cplxblur=20.0 / qblur=0.5 / ip_ratio=1.40 / aq=1:1.00
  24. Default                                  : Yes
  25. Forced                                   : No

  26. Audio
  27. ID                                       : 2
  28. Format                                   : DTS
  29. Format/Info                              : Digital Theater Systems
  30. Mode                                     : 16
  31. Format settings, Endianness              : Big
  32. Codec ID                                 : A_DTS
  33. Duration                                 : 1h 28mn
  34. Bit rate mode                            : Constant
  35. Bit rate                                 : 1 509 Kbps
  36. Channel(s)                               : 6 channels
  37. Channel positions                        : Front: L C R, Side: L R, LFE
  38. Sampling rate                            : 48.0 KHz
  39. Frame rate                               : 93.750 fps (512 spf)
  40. Bit depth                                : 24 bits
  41. Compression mode                         : Lossy
  42. Stream size                              : 953 MiB (14%)
  43. Language                                 : English
  44. Default                                  : Yes
  45. Forced                                   : No

  46. Menu
  47. 00:00:00.000                             : en:00:00:00.000
  48. 00:07:11.765                             : en:00:07:11.765
  49. 00:12:02.388                             : en:00:12:02.388
  50. 00:19:12.902                             : en:00:19:12.902
  51. 00:30:08.724                             : en:00:30:08.724
  52. 00:42:03.521                             : en:00:42:03.521
  53. 00:48:25.903                             : en:00:48:25.903
  54. 00:55:29.076                             : en:00:55:29.076
  55. 01:01:47.787                             : en:01:01:47.787
  56. 01:08:14.674                             : en:01:08:14.674
  57. 01:16:01.348                             : en:01:16:01.348
  58. 01:23:51.693                             : en:01:23:51.693
复制代码

复制代码

决定/挑选 The.Chosen.2015.1080p.BluRay.x264-GUACAMOLE 6.56GB-2.jpg





回复

使用道具 举报

级别:群众演员 Lv.3

注册时间
2019-1-11
最后登录
2019-6-3
听众
5
收听
0
主题
0
蓝光币
113 枚
贡献
0 点
QQ
发表于 2019-1-11 16:04:02 | 显示全部楼层
预告片不错,看看正片有多恐怖
回复

使用道具 举报

级别:专业龙套 Lv.4

注册时间
2019-1-21
最后登录
2019-2-17
听众
4
收听
0
主题
0
蓝光币
389 枚
贡献
0 点
发表于 2019-2-12 10:32:46 | 显示全部楼层
楼主发贴辛苦了,谢谢楼主分享!我觉得中国高清电影网是注册对了!
回复

使用道具 举报

*滑动验证:
懒得打字嘛,点击右侧快捷回复 【右侧内容,后台自定义】
您需要登录后才可以回帖 登录 | 立即注册

本版积分规则

QQ|Archiver|手机版|小黑屋| 中国高清网 |网站地图

GMT+8, 2019-6-18 19:16 , Processed in 0.164669 second(s), 47 queries .

Powered by HDchina X3.4

Copyright 2017-2019©HDchina.All right reserved

返回顶部 联系我们