你所知道的4K资源这里全部都有 4K电影 | 4K视频 | 4K壁纸 | 4K MV 怎么播放4K视频 | 4K电视演示片

教你玩转4K私人与家庭影院存储 NAS组装 | 黑群辉 家庭/影院Nas论坛

4K家庭影院信号源与视频设备知识 4K蓝光高清播放机 - 那个品牌好? 4K投影机论坛 | 4K电视机论坛

手把手教你搭建属于自己的家庭影院 4K家庭影院案例 | 家庭影院音频 4K家庭影院论坛

查看: 138|回复: 3

[喜剧片] 黄金梦 You.ll.Never.Get.Rich.1941.1080p.BluRay.x264-SADPANDA 6.55GB

[复制链接]

 成长值: 1600

级别:资源管理组

注册时间
2017-10-20
最后登录
2019-6-18
听众
0
收听
0
主题
78692
蓝光币
26994 枚
贡献
3017 点
发表于 2019-1-11 10:02:21 | 显示全部楼层 |阅读模式

黄金梦 You.ll.Never.Get.Rich.1941.1080p.BluRay.x264-SADPANDA 6.55GB-1.jpg
◎译  名 黄金梦
◎片  名 黄金梦 You'll Never Get Rich
◎年  代 1941
◎国  家 美国
◎类  别 笑剧 / 恋爱 / 歌舞
◎语  言 英语
◎上映日期 1941-09-25
◎IMDb评分  6.8/10 from 1,891 users
◎IMDb链接  http://www.imdb.com/title/tt0034409/
◎豆瓣评分 7.5/10 from 167 users
◎豆瓣链接 https://movie.douban.com/subject/2131214/
◎片  长 88 分钟
◎导  演 Sidney Lanfield
◎主  演 Fred Astaire
      Rita Hayworth

◎简  介 

  此片一出,又开启了全程看腿形式。大过年的,我激烈倡议把此片留至大年三十晚暖锅饭后旁观比力妥,直插春晚没得说!此片阿谁乐的,故事异常趣致 。报告已婚的舞蹈剧团高管看中了团里的女神,高管的眼光自然不差。所以在成婚纪念日当天,他买了条刻了几个字钻石手链预备赠给女神,却不意东窗事发,给妻子逮个正着。他就心血来潮把钻石手链硬说是他手下舞蹈团总监兼舞神阿斯泰尔买来送给女神的,还放置舞神跟女神伪装约会晒狗粮,这么一晒轰动了报刊。隔天报纸上便刊登了他俩订婚的消息,舞神看后一怒冲到她家讨个说法,却遇上由女神的备胎男友假扮成正义年老的威吓。舞神为了出亡跑去从军,又遇上了已婚高管预备率领舞蹈团到军队办表演,但表演的目标现实上就是为了让一小三上位成名。已婚高管固然又得拖舞神下水,又重新亮出了那条钻石手链,又重刻了几个字![嘻嘻]这出轨把妹的招数重用了好多遍,屡试不爽,新颖不竭。看来我也得众筹买一条防身!固然这条把妹神器也维系了女神与舞神,促进了一段姻缘。已婚高管这个损货究竟能否是月老还得两说!丽塔·海华斯的轻盈漫舞心旷神怡,而且她总是好高兴的样子,固然旦凡具有那条腿自然做梦也高兴啦!弗雷德·阿斯泰尔也挺逗,固然最逗的还是由Robert Benchley饰演的高管,很出彩。

◎获奖情况 

  第14届奥斯卡金像奖 (1942)
  歌舞片最好配乐(提名) Morris Stoloff
  最好原创歌曲(提名) 科尔·波特


  1. Video
  2. ID                                       : 1
  3. Format                                   : AVC
  4. Format/Info                              : Advanced Video Codec
  5. Format profile                           : [url=/cdn-cgi/l/email-protection][email protected][/url]
  6. Format settings, CABAC                   : Yes
  7. Format settings, ReFrames                : 5 frames
  8. Codec ID                                 : V_MPEG4/ISO/AVC
  9. Duration                                 : 1h 28mn
  10. Bit rate                                 : 9 983 Kbps
  11. Width                                    : 1 488 pixels
  12. Height                                   : 1 080 pixels
  13. Display aspect ratio                     : 1.378
  14. Frame rate mode                          : Constant
  15. Frame rate                               : 23.976 (24000/1001) fps
  16. Color space                              : YUV
  17. Chroma subsampling                       : 4:2:0
  18. Bit depth                                : 8 bits
  19. Scan type                                : Progressive
  20. Bits/(Pixel*Frame)                       : 0.259
  21. Stream size                              : 6.18 GiB (94%)
  22. Writing library                          : x264 core 150 r2833 df79067
  23. Encoding settings                        : cabac=1 / ref=5 / deblock=1:-3:-3 / analyse=0x3:0x113 / me=umh / subme=8 / psy=1 / psy_rd=1.00:0.25 / mixed_ref=1 / me_range=24 / chroma_me=1 / trellis=1 / 8x8dct=1 / cqm=0 / deadzone=21,11 / fast_pskip=1 / chroma_qp_offset=-4 / threads=30 / lookahead_threads=5 / sliced_threads=0 / nr=0 / decimate=1 / interlaced=0 / bluray_compat=0 / constrained_intra=0 / bframes=3 / b_pyramid=2 / b_adapt=1 / b_bias=0 / direct=3 / weightb=1 / open_gop=0 / weightp=2 / keyint=240 / keyint_min=24 / scenecut=40 / intra_refresh=0 / rc_lookahead=50 / rc=2pass / mbtree=1 / bitrate=9983 / ratetol=1.0 / qcomp=0.60 / qpmin=0 / qpmax=69 / qpstep=4 / cplxblur=20.0 / qblur=0.5 / ip_ratio=1.40 / aq=1:0.75
  24. Default                                  : Yes
  25. Forced                                   : No

  26. Audio
  27. ID                                       : 2
  28. Format                                   : FLAC
  29. Format/Info                              : Free Lossless Audio Codec
  30. Codec ID                                 : A_FLAC
  31. Duration                                 : 1h 28mn
  32. Bit rate mode                            : Variable
  33. Bit rate                                 : 603 Kbps
  34. Channel(s)                               : 2 channels
  35. Channel positions                        : Front: L R
  36. Sampling rate                            : 48.0 KHz
  37. Frame rate                               : 11.719 fps (4096 spf)
  38. Bit depth                                : 24 bits
  39. Stream size                              : 382 MiB (6%)
  40. Writing library                          : libFLAC 1.2.1 (UTC 2007-09-17)
  41. Language                                 : English
  42. Default                                  : Yes
  43. Forced                                   : No

  44. Menu
  45. 00:00:00.000                             : en:00:00:00.000
  46. 00:03:14.111                             : en:00:03:14.111
  47. 00:07:45.840                             : en:00:07:45.840
  48. 00:12:20.740                             : en:00:12:20.740
  49. 00:14:19.358                             : en:00:14:19.358
  50. 00:18:55.634                             : en:00:18:55.634
  51. 00:21:28.037                             : en:00:21:28.037
  52. 00:25:36.493                             : en:00:25:36.493
  53. 00:28:23.035                             : en:00:28:23.035
  54. 00:34:11.299                             : en:00:34:11.299
  55. 00:38:12.290                             : en:00:38:12.290
  56. 00:40:43.441                             : en:00:40:43.441
  57. 00:44:27.415                             : en:00:44:27.415
  58. 00:47:47.281                             : en:00:47:47.281
  59. 00:50:53.801                             : en:00:50:53.801
  60. 00:55:29.159                             : en:00:55:29.159
  61. 00:57:55.972                             : en:00:57:55.972
  62. 01:01:53.376                             : en:01:01:53.376
  63. 01:06:01.541                             : en:01:06:01.541
  64. 01:07:59.993                             : en:01:07:59.993
  65. 01:14:34.136                             : en:01:14:34.136
  66. 01:17:52.042                             : en:01:17:52.042
  67. 01:20:12.641                             : en:01:20:12.641
  68. 01:25:39.926                             : en:01:25:39.926
复制代码

复制代码

黄金梦 You.ll.Never.Get.Rich.1941.1080p.BluRay.x264-SADPANDA 6.55GB-2.jpg





回复

使用道具 举报

级别:初级观众 Lv.1

注册时间
2019-1-10
最后登录
2019-2-3
听众
4
收听
0
主题
0
蓝光币
15 枚
贡献
0 点
发表于 2019-1-11 18:15:47 | 显示全部楼层
瞅瞅这个片子如何
回复

使用道具 举报

级别:初级观众 Lv.1

注册时间
2019-1-10
最后登录
2019-2-3
听众
4
收听
0
主题
0
蓝光币
15 枚
贡献
0 点
发表于 2019-1-11 18:22:19 | 显示全部楼层
下载的这个附件怎么变成种子啊?还是下载不了电影
回复

使用道具 举报

级别:专业龙套 Lv.4

注册时间
2019-1-21
最后登录
2019-2-17
听众
4
收听
0
主题
0
蓝光币
389 枚
贡献
0 点
发表于 2019-2-12 10:33:21 | 显示全部楼层
楼主发贴辛苦了,谢谢楼主分享!我觉得中国高清电影网是注册对了!
回复

使用道具 举报

*滑动验证:
懒得打字嘛,点击右侧快捷回复 【右侧内容,后台自定义】
您需要登录后才可以回帖 登录 | 立即注册

本版积分规则

QQ|Archiver|手机版|小黑屋| 中国高清网 |网站地图

GMT+8, 2019-6-18 18:40 , Processed in 0.259294 second(s), 47 queries .

Powered by HDchina X3.4

Copyright 2017-2019©HDchina.All right reserved

返回顶部 联系我们