你所知道的4K资源这里全部都有 4K电影 | 4K视频 | 4K壁纸 | 4K MV 怎么播放4K视频 | 4K电视演示片

教你玩转4K私人与家庭影院存储 NAS组装 | 黑群辉 家庭/影院Nas论坛

4K家庭影院信号源与视频设备知识 4K蓝光高清播放机 - 那个品牌好? 4K投影机论坛 | 4K电视机论坛

手把手教你搭建属于自己的家庭影院 4K家庭影院案例 | 家庭影院音频 4K家庭影院论坛

查看: 132|回复: 2

[喜剧片] 分家总动员 House.Broken.2010.1080p.BluRay.x264-LEVERAGE 7.94GB

[复制链接]

 成长值: 1600

级别:资源管理组

注册时间
2017-10-20
最后登录
2019-6-18
听众
0
收听
0
主题
78704
蓝光币
27000 枚
贡献
3029 点
发表于 2019-1-11 10:01:02 | 显示全部楼层 |阅读模式

分炊总带动 House.Broken.2010.1080p.BluRay.x264-LEVERAGE 7.94GB-1.jpg
◎译  名 分炊总带动
◎片  名 分炊总带动 House Broken
◎年  代 2009
◎国  家 美国
◎类  别 笑剧
◎语  言 英语
◎上映日期 2009
◎IMDb评分  4.8/10 from 1,872 users
◎IMDb链接  http://www.imdb.com/title/tt1054631/
◎豆瓣评分 5.6/10 from 385 users
◎豆瓣链接 https://movie.douban.com/subject/3932051/
◎片  长 84 分钟
◎导  演 Sam Harper
◎主  演 丹尼·德维托
      斯凯勒·斯通
      瑞恩·汉森
      布丽·拉尔森
      托马斯·F·威尔森
      琪兰·席普卡
      Caitlin Crosby

◎简  介 

  Tom Cathcart在消防队工作了25年,退休以后,他希望和爱妻高兴地度过退休时光。为此他挖空心机,想方设法把奇懒非常、赖在家里不愿自力生活的20多岁的儿子赶落发门。


  1. Video
  2. ID                                       : 1
  3. Format                                   : AVC
  4. Format/Info                              : Advanced Video Codec
  5. Format profile                           : [url=/cdn-cgi/l/email-protection][email protected][/url]
  6. Format settings                          : CABAC / 4 Ref Frames
  7. Format settings, CABAC                   : Yes
  8. Format settings, ReFrames                : 4 frames
  9. Codec ID                                 : V_MPEG4/ISO/AVC
  10. Duration                                 : 1 h 31 min
  11. Bit rate                                 : 11.0 Mb/s
  12. Width                                    : 1 920 pixels
  13. Height                                   : 1 080 pixels
  14. Display aspect ratio                     : 16:9
  15. Frame rate mode                          : Constant
  16. Frame rate                               : 23.976 FPS
  17. Color space                              : YUV
  18. Chroma subsampling                       : 4:2:0
  19. Bit depth                                : 8 bits
  20. Scan type                                : Progressive
  21. Bits/(Pixel*Frame)                       : 0.220
  22. Stream size                              : 6.82 GiB (86%)
  23. Writing library                          : x264 core 92 r1510 33d382a
  24. Encoding settings                        : cabac=1 / ref=4 / deblock=1:0:0 / analyse=0x3:0x2 / me=umh / subme=7 / psy=1 / psy_rd=1.00:0.00 / mixed_ref=1 / me_range=16 / chroma_me=0 / trellis=1 / 8x8dct=1 / cqm=0 / deadzone=21,11 / fast_pskip=0 / chroma_qp_offset=-2 / threads=12 / sliced_threads=0 / nr=0 / decimate=1 / interlaced=0 / constrained_intra=0 / bframes=3 / b_pyramid=0 / b_adapt=1 / b_bias=0 / direct=1 / wpredb=1 / wpredp=2 / keyint=250 / keyint_min=25 / scenecut=40 / intra_refresh=0 / rc=2pass / mbtree=0 / bitrate=10956 / ratetol=1.0 / qcomp=0.60 / qpmin=10 / qpmax=51 / qpstep=4 / cplxblur=20.0 / qblur=0.5 / ip_ratio=1.40 / pb_ratio=1.30 / aq=1:1.00
  25. Language                                 : English
  26. Default                                  : No
  27. Forced                                   : No

  28. Audio
  29. ID                                       : 2
  30. Format                                   : DTS
  31. Format/Info                              : Digital Theater Systems
  32. Codec ID                                 : A_DTS
  33. Duration                                 : 1 h 31 min
  34. Bit rate mode                            : Constant
  35. Bit rate                                 : 1 509 kb/s
  36. Channel(s)                               : 6 channels
  37. Channel layout                           : C L R Ls Rs LFE
  38. Sampling rate                            : 48.0 kHz
  39. Frame rate                               : 93.750 FPS (512 SPF)
  40. Bit depth                                : 24 bits
  41. Compression mode                         : Lossy
  42. Stream size                              : 985 MiB (12%)
  43. Language                                 : English
  44. Default                                  : Yes
  45. Forced                                   : No

  46. Text
  47. ID                                       : 3
  48. Format                                   : UTF-8
  49. Codec ID                                 : S_TEXT/UTF8
  50. Codec ID/Info                            : UTF-8 Plain Text
  51. Language                                 : English
  52. Default                                  : Yes
  53. Forced                                   : No
复制代码

复制代码

分炊总带动 House.Broken.2010.1080p.BluRay.x264-LEVERAGE 7.94GB-2.png 分炊总带动 House.Broken.2010.1080p.BluRay.x264-LEVERAGE 7.94GB-3.png 分炊总带动 House.Broken.2010.1080p.BluRay.x264-LEVERAGE 7.94GB-4.png





回复

使用道具 举报

级别:专业龙套 Lv.4

注册时间
2019-1-18
最后登录
2019-4-13
听众
5
收听
0
主题
0
蓝光币
353 枚
贡献
0 点
发表于 2019-1-20 23:51:38 | 显示全部楼层
楼主辛苦了,谢谢分享
回复

使用道具 举报

级别:专业龙套 Lv.4

注册时间
2019-1-21
最后登录
2019-2-17
听众
4
收听
0
主题
0
蓝光币
389 枚
贡献
0 点
发表于 2019-2-12 10:33:55 | 显示全部楼层
楼主发贴辛苦了,谢谢楼主分享!我觉得中国高清电影网是注册对了!
回复

使用道具 举报

*滑动验证:
懒得打字嘛,点击右侧快捷回复 【右侧内容,后台自定义】
您需要登录后才可以回帖 登录 | 立即注册

本版积分规则

QQ|Archiver|手机版|小黑屋| 中国高清网 |网站地图

GMT+8, 2019-6-18 19:36 , Processed in 0.212702 second(s), 46 queries .

Powered by HDchina X3.4

Copyright 2017-2019©HDchina.All right reserved

返回顶部 联系我们