你所知道的4K资源这里全部都有 4K电影 | 4K视频 | 4K壁纸 | 4K MV 怎么播放4K视频 | 4K电视演示片

教你玩转4K私人与家庭影院存储 NAS组装 | 黑群辉 家庭/影院Nas论坛

4K家庭影院信号源与视频设备知识 4K蓝光高清播放机 - 那个品牌好? 4K投影机论坛 | 4K电视机论坛

手把手教你搭建属于自己的家庭影院 4K家庭影院案例 | 家庭影院音频 4K家庭影院论坛

查看: 163|回复: 2

[惊悚片] 春之祭 Rites.of.Spring.2011.1080p.BluRay.x264-VETO 6.55GB

[复制链接]

 成长值: 1600

级别:资源管理组

注册时间
2017-10-20
最后登录
2019-6-18
听众
0
收听
0
主题
78692
蓝光币
26992 枚
贡献
3017 点
发表于 2019-1-11 09:59:48 | 显示全部楼层 |阅读模式

春之祭 Rites.of.Spring.2011.1080p.BluRay.x264-VETO 6.55GB-1.jpg
◎译  名 春之祭
◎片  名 春之祭 Rites of Spring
◎年  代 2010
◎国  家 美国
◎类  别 惊悚 / 可骇
◎语  言 英语
◎上映日期 2011-10-22(美国)
◎IMDb评分  4.5/10 from 1,916 users
◎IMDb链接  http://www.imdb.com/title/tt1227789/
◎豆瓣评分 3.1/10 from 147 users
◎豆瓣链接 https://movie.douban.com/subject/3066742/
◎片  长 80分钟
◎导  演 Padraig Reynolds
◎主  演 Anessa Ramsey
      Shanna Forrestall
      AJ Bowen

◎简  介 

  夜深人静之时,年轻女子瑞切尔(Anessa Ramsey 饰)和艾莉莎(Hannah Bryan 饰)忽然遭到奥秘之人的攻击和绑架。当她们苏醒过来后,发现自己正被绑在一座谷仓中,戴着面具的可骇男报酬她们举行邪气逼人的仪式。另一方面,受债权困扰的汉子本(AJ Bowen 饰)结合女友艾米(卡瑟琳·兰道夫 Katherine Randolph 饰)、弟弟汤米(安德鲁·布瑞兰 Andrew Breland 饰)以及陌生汉子保罗(Sonny Marinelli 饰)策划绑架了富有贩子瑞恩·海登(詹姆斯·巴兹 James Bartz 饰)的女儿,并讨取高达两百万美圆的赎金。
  正当本和保罗众报酬了赎金起整治的时辰,死里逃生的瑞切尔忽然出现,随之而来的还有残暴的春之祭杀人魔……


  1. Video
  2. ID                                       : 1
  3. Format                                   : AVC
  4. Format/Info                              : Advanced Video Codec
  5. Format profile                           : [url=/cdn-cgi/l/email-protection][email protected][/url]
  6. Format settings                          : CABAC / 5 Ref Frames
  7. Format settings, CABAC                   : Yes
  8. Format settings, ReFrames                : 5 frames
  9. Codec ID                                 : V_MPEG4/ISO/AVC
  10. Duration                                 : 1 h 22 min
  11. Bit rate                                 : 9 853 kb/s
  12. Width                                    : 1 920 pixels
  13. Height                                   : 816 pixels
  14. Display aspect ratio                     : 2.35:1
  15. Frame rate mode                          : Constant
  16. Frame rate                               : 23.976 (24000/1001) FPS
  17. Color space                              : YUV
  18. Chroma subsampling                       : 4:2:0
  19. Bit depth                                : 8 bits
  20. Scan type                                : Progressive
  21. Bits/(Pixel*Frame)                       : 0.262
  22. Stream size                              : 5.55 GiB (85%)
  23. Writing library                          : x264 core 132 r2310 76a5c3a
  24. Encoding settings                        : cabac=1 / ref=5 / deblock=1:0:0 / analyse=0x3:0x133 / me=umh / subme=7 / psy=1 / psy_rd=1.00:0.00 / mixed_ref=1 / me_range=16 / chroma_me=1 / trellis=1 / 8x8dct=1 / cqm=0 / deadzone=21,11 / fast_pskip=0 / chroma_qp_offset=-2 / threads=18 / lookahead_threads=3 / sliced_threads=0 / nr=0 / decimate=1 / interlaced=0 / bluray_compat=0 / constrained_intra=0 / bframes=3 / b_pyramid=2 / b_adapt=1 / b_bias=0 / direct=1 / weightb=1 / open_gop=0 / weightp=2 / keyint=240 / keyint_min=23 / scenecut=40 / intra_refresh=0 / rc_lookahead=40 / rc=2pass / mbtree=1 / bitrate=9853 / ratetol=1.0 / qcomp=0.60 / qpmin=10 / qpmax=69 / qpstep=4 / cplxblur=20.0 / qblur=0.5 / ip_ratio=1.40 / aq=1:1.00
  25. Language                                 : English
  26. Default                                  : Yes
  27. Forced                                   : No

  28. Audio
  29. ID                                       : 2
  30. Format                                   : DTS
  31. Format/Info                              : Digital Theater Systems
  32. Codec ID                                 : A_DTS
  33. Duration                                 : 1 h 22 min
  34. Bit rate mode                            : Constant
  35. Bit rate                                 : 1 509 kb/s
  36. Channel(s)                               : 6 channels
  37. Channel layout                           : C L R Ls Rs LFE
  38. Sampling rate                            : 48.0 kHz
  39. Frame rate                               : 93.750 FPS (512 SPF)
  40. Bit depth                                : 16 bits
  41. Compression mode                         : Lossy
  42. Stream size                              : 891 MiB (13%)
  43. Language                                 : English
  44. Default                                  : Yes
  45. Forced                                   : No

  46. Menu
  47. 00:00:00.000                             : en:00:00:00.000
  48. 00:04:07.872                             : en:00:04:07.872
  49. 00:11:21.222                             : en:00:11:21.222
  50. 00:17:43.145                             : en:00:17:43.145
  51. 00:24:44.983                             : en:00:24:44.983
  52. 00:33:18.913                             : en:00:33:18.913
  53. 00:42:03.437                             : en:00:42:03.437
  54. 00:49:48.986                             : en:00:49:48.986
  55. 00:56:12.327                             : en:00:56:12.327
  56. 01:02:40.256                             : en:01:02:40.256
  57. 01:09:38.757                             : en:01:09:38.757
  58. 01:15:50.921                             : en:01:15:50.921
复制代码

复制代码

春之祭 Rites.of.Spring.2011.1080p.BluRay.x264-VETO 6.55GB-2.png 春之祭 Rites.of.Spring.2011.1080p.BluRay.x264-VETO 6.55GB-3.png 春之祭 Rites.of.Spring.2011.1080p.BluRay.x264-VETO 6.55GB-4.png





回复

使用道具 举报

级别:专业龙套 Lv.4

注册时间
2019-1-18
最后登录
2019-4-13
听众
5
收听
0
主题
0
蓝光币
353 枚
贡献
0 点
发表于 2019-1-20 23:59:34 | 显示全部楼层
楼主辛苦了,谢谢分享
回复

使用道具 举报

级别:专业龙套 Lv.4

注册时间
2019-1-21
最后登录
2019-2-17
听众
4
收听
0
主题
0
蓝光币
389 枚
贡献
0 点
发表于 2019-2-12 10:35:06 | 显示全部楼层
楼主发贴辛苦了,谢谢楼主分享!我觉得中国高清电影网是注册对了!
回复

使用道具 举报

*滑动验证:
懒得打字嘛,点击右侧快捷回复 【右侧内容,后台自定义】
您需要登录后才可以回帖 登录 | 立即注册

本版积分规则

QQ|Archiver|手机版|小黑屋| 中国高清网 |网站地图

GMT+8, 2019-6-18 18:37 , Processed in 0.240635 second(s), 47 queries .

Powered by HDchina X3.4

Copyright 2017-2019©HDchina.All right reserved

返回顶部 联系我们