你所知道的4K资源这里全部都有 4K电影 | 4K视频 | 4K壁纸 | 4K MV 怎么播放4K视频 | 4K电视演示片

教你玩转4K私人与家庭影院存储 NAS组装 | 黑群辉 家庭/影院Nas论坛

4K家庭影院信号源与视频设备知识 4K蓝光高清播放机 - 那个品牌好? 4K投影机论坛 | 4K电视机论坛

手把手教你搭建属于自己的家庭影院 4K家庭影院案例 | 家庭影院音频 4K家庭影院论坛

查看: 237|回复: 6

[动画片] 驯龙高手2/驯龙记2 How.to.Train.Your.Dragon.2.2014.1080p.BluRay.x264.DTS-SWTYBLZ 5.31GB

[复制链接]

 成长值: 1600

级别:资源管理组

注册时间
2017-10-20
最后登录
2019-6-18
听众
0
收听
0
主题
78699
蓝光币
27000 枚
贡献
3024 点
发表于 2019-1-11 09:59:22 | 显示全部楼层 |阅读模式

驯龙高手2/驯龙记2 How.to.Train.Your.Dragon.2.2014.1080p.BluRay.x264.DTS-SWTYBLZ 5.31GB-1.jpg
◎译  名 驯龙高手2 / 驯龙记2(港)
◎片  名 驯龙高手2 How to Train Your Dragon 2
◎年  代 2014
◎国  家 美国
◎类  别 笑剧 / 动画 / 奇异 / 冒险
◎语  言 英语
◎上映日期 2014-08-14(中国大陆) / 2014-05-16(戛纳电影节) / 2014-06-13(美国)
◎IMDb评分  7.8/10 from 263,684 users
◎IMDb链接  http://www.imdb.com/title/tt1646971/
◎豆瓣评分 7.9/10 from 157407 users
◎豆瓣链接 https://movie.douban.com/subject/4824512/
◎片  长 102分钟
◎导  演 迪恩·德布洛斯
◎主  演 杰伊·巴鲁切尔
      凯特·布兰切特
      杰拉德·巴特勒
      克雷格·费格森
      亚美莉卡·费雷拉
      乔纳·希尔
      克里斯托夫·梅兹-普莱瑟
      T·J·米勒
      克里斯汀·韦格
      杰曼·翰苏
      基特·哈灵顿
      基隆·埃利奥特
      菲利普·麦格雷德
      安德鲁·埃布尔森
      吉迪恩·埃默里
      西蒙·卡斯安德斯
      兰迪·汤姆

◎简  介 

  年轻勇敢的维京勇士小嗝嗝 (杰伊·巴鲁切尔 Jay Baruchel 配音)驯服受伤的龙,更与它成为好友。经过五年时候,博克岛居民的生活完全渗透龙的气味。博克岛现已是个维京人与龙战争共存的天堂。
  但是,长大却意味着义务。为了寻觅答案,小嗝嗝与虔诚的没牙仔起头了他们的冒险旅程,但成果却超乎预感。一方面,小嗝嗝发现奥秘的驯龙骑士,正是失落多年的亲母沃尔卡(凯特·布兰切特 Cate Blanchett 配音);另一方面,嗜权的德雷格(杰曼·翰苏 Djimon Hounsou 配音)与龙猎人埃雷特(基特·哈灵顿 Kit Harington 配音)缔盟,威胁到博克岛上人与龙的战争。
  为了庇护深受大师爱好的龙,阿丝翠德(亚美莉卡·费雷拉 America Ferrera 配音)、高博(克雷格·费格森 Craig Ferguson 配音),维京伙伴们:鼻涕虫(乔纳·希尔 Jonah Hill 配音)、鱼脚司(克里斯托夫·梅兹-普莱瑟 Christopher Mintz-Plasse 配音)及双胞胎拉芙纳特(克里斯汀·韦格 Kristen Wiig 配音)、特夫纳特(托德·约瑟夫·米勒 T.J. Miller 配音)都脱手互助,加上小嗝嗝、身为部族的首领的父亲斯多戈(杰拉德·巴特勒 Gerard Butler 配音)及母亲连手合作。在这时代,小嗝嗝一向追随的答案就在不知不觉以意想不到的方式出现了……

◎获奖情况 

  第87届奥斯卡金像奖 (2015)
  最好动画长片(提名) 邦妮·阿诺德 /  迪恩·德布洛斯

  第72届金球奖 (2015)
  电影类 最好动画长片

  第42届动画安妮奖 (2015)
  最好动画长片
  最好导演 迪恩·德布洛斯
  最好编剧(提名) 迪恩·德布洛斯
  最好配乐 Jon Thor Birgisson /  约翰·鲍威尔
  最好剪辑 约翰·K·凯尔
  最好分镜
  最好动画脚色 Fabio Lignini
  最好动画脚色(提名) Steven Hornby
  最好动画结果(提名) Tobin Jones

  第86届美国国家批评协会奖 (2014)
  最好动画片

  第18届好莱坞电影奖 (2014)
  年度动画

  第13届华盛顿影评人协会奖 (2014)
  最好动画片(提名)

  第27届芝加哥影评人协会奖 (2014)
  最好动画片(提名)

  第18届美国在线影评人协会奖 (2014)
  最好动画片(提名)

  第16届美国青少年挑选奖 (2014)
  最好动画片(提名)
  最好动画配音(提名) 凯特·布兰切特

  第1届豆瓣电影年度榜单 (2014)
  评分最高的动画片(提名)
  8月最受关注电影


  1. Video
  2. ID                                       : 1
  3. Format                                   : AVC
  4. Format/Info                              : Advanced Video Codec
  5. Format profile                           : [url=/cdn-cgi/l/email-protection][email protected][/url]
  6. Format settings                          : CABAC / 5 Ref Frames
  7. Format settings, CABAC                   : Yes
  8. Format settings, ReFrames                : 5 frames
  9. Codec ID                                 : V_MPEG4/ISO/AVC
  10. Duration                                 : 1 h 41 min
  11. Bit rate                                 : 5 951 kb/s
  12. Width                                    : 1 920 pixels
  13. Height                                   : 816 pixels
  14. Display aspect ratio                     : 2.35:1
  15. Frame rate mode                          : Constant
  16. Frame rate                               : 23.976 (24000/1001) FPS
  17. Color space                              : YUV
  18. Chroma subsampling                       : 4:2:0
  19. Bit depth                                : 8 bits
  20. Scan type                                : Progressive
  21. Bits/(Pixel*Frame)                       : 0.158
  22. Stream size                              : 4.24 GiB (80%)
  23. Title                                    : How.to.Train.Your.Dragon.2.2014.1080p.BluRay.x264.DTS-SWTYBLZ
  24. Writing library                          : x264 core 157 r2935 545de2f
  25. Encoding settings                        : cabac=1 / ref=5 / deblock=1:1:1 / analyse=0x3:0x133 / me=umh / subme=10 / psy=1 / psy_rd=0.40:0.00 / mixed_ref=1 / me_range=48 / chroma_me=1 / trellis=2 / 8x8dct=1 / cqm=0 / deadzone=21,11 / fast_pskip=1 / chroma_qp_offset=-2 / threads=25 / lookahead_threads=6 / sliced_threads=0 / nr=0 / decimate=0 / interlaced=0 / bluray_compat=0 / constrained_intra=0 / bframes=10 / b_pyramid=2 / b_adapt=2 / b_bias=0 / direct=3 / weightb=1 / open_gop=0 / weightp=2 / keyint=250 / keyint_min=23 / scenecut=40 / intra_refresh=0 / rc_lookahead=60 / rc=crf / mbtree=1 / crf=15.0 / qcomp=0.60 / qpmin=0 / qpmax=69 / qpstep=4 / ip_ratio=1.40 / aq=1:0.60
  26. Default                                  : Yes
  27. Forced                                   : No

  28. Audio
  29. ID                                       : 2
  30. Format                                   : DTS
  31. Format/Info                              : Digital Theater Systems
  32. Codec ID                                 : A_DTS
  33. Duration                                 : 1 h 41 min
  34. Bit rate mode                            : Constant
  35. Bit rate                                 : 1 509 kb/s
  36. Channel(s)                               : 6 channels
  37. Channel layout                           : C L R Ls Rs LFE
  38. Sampling rate                            : 48.0 kHz
  39. Frame rate                               : 93.750 FPS (512 SPF)
  40. Bit depth                                : 24 bits
  41. Compression mode                         : Lossy
  42. Stream size                              : 1.07 GiB (20%)
  43. Title                                    : How.to.Train.Your.Dragon.2.2014.1080p.BluRay.x264.DTS-SWTYBLZ
  44. Default                                  : Yes
  45. Forced                                   : No

  46. Text #1
  47. ID                                       : 3
  48. Format                                   : UTF-8
  49. Codec ID                                 : S_TEXT/UTF8
  50. Codec ID/Info                            : UTF-8 Plain Text
  51. Duration                                 : 1 h 31 min
  52. Bit rate                                 : 49 b/s
  53. Count of elements                        : 1369
  54. Stream size                              : 33.1 KiB (0%)
  55. Language                                 : English
  56. Default                                  : Yes
  57. Forced                                   : No

  58. Text #2
  59. ID                                       : 4
  60. Format                                   : UTF-8
  61. Codec ID                                 : S_TEXT/UTF8
  62. Codec ID/Info                            : UTF-8 Plain Text
  63. Duration                                 : 1 h 40 min
  64. Bit rate                                 : 59 b/s
  65. Count of elements                        : 1930
  66. Stream size                              : 43.6 KiB (0%)
  67. Title                                    : SDH
  68. Language                                 : English
  69. Default                                  : No
  70. Forced                                   : No

  71. Menu
  72. 00:00:00.000                             : :Chapter 1
  73. 00:03:31.920                             : :Chapter 2
  74. 00:05:24.615                             : :Chapter 3
  75. 00:07:49.927                             : :Chapter 4
  76. 00:10:19.952                             : :Chapter 5
  77. 00:13:20.257                             : :Chapter 6
  78. 00:17:02.980                             : :Chapter 7
  79. 00:20:05.621                             : :Chapter 8
  80. 00:23:47.175                             : :Chapter 9
  81. 00:27:18.386                             : :Chapter 10
  82. 00:29:25.388                             : :Chapter 11
  83. 00:33:45.857                             : :Chapter 12
  84. 00:37:09.393                             : :Chapter 13
  85. 00:39:10.890                             : :Chapter 14
  86. 00:41:03.085                             : :Chapter 15
  87. 00:45:07.913                             : :Chapter 16
  88. 00:47:20.546                             : :Chapter 17
  89. 00:51:55.445                             : :Chapter 18
  90. 00:54:39.651                             : :Chapter 19
  91. 00:56:19.918                             : :Chapter 20
  92. 01:00:37.091                             : :Chapter 21
  93. 01:04:32.702                             : :Chapter 22
  94. 01:06:38.869                             : :Chapter 23
  95. 01:09:48.058                             : :Chapter 24
  96. 01:14:05.023                             : :Chapter 25
  97. 01:18:39.047                             : :Chapter 26
  98. 01:21:11.074                             : :Chapter 27
  99. 01:22:58.974                             : :Chapter 28
  100. 01:24:33.985                             : :Chapter 29
  101. 01:28:08.574                             : :Chapter 30
  102. 01:31:07.420                             : :Chapter 31
  103. 01:32:25.915                             : :Chapter 32
复制代码

复制代码

驯龙高手2/驯龙记2 How.to.Train.Your.Dragon.2.2014.1080p.BluRay.x264.DTS-SWTYBLZ 5.31GB-2.png 驯龙高手2/驯龙记2 How.to.Train.Your.Dragon.2.2014.1080p.BluRay.x264.DTS-SWTYBLZ 5.31GB-3.png 驯龙高手2/驯龙记2 How.to.Train.Your.Dragon.2.2014.1080p.BluRay.x264.DTS-SWTYBLZ 5.31GB-4.png





回复

使用道具 举报

级别:专业龙套 Lv.4

注册时间
2018-3-4
最后登录
2019-3-11
听众
5
收听
0
主题
0
蓝光币
308 枚
贡献
0 点
发表于 2019-1-12 22:21:40 | 显示全部楼层

这个帖子不回对不起自己!我想我是一天也不能离开中国高清电影网
回复

使用道具 举报

级别:专业龙套 Lv.4

注册时间
2019-1-17
最后登录
2019-6-18
听众
6
收听
0
主题
0
蓝光币
121 枚
贡献
0 点
发表于 2019-1-17 20:45:44 | 显示全部楼层
楼主发贴辛苦了,谢谢楼主分享!我觉得中国高清电影网是注册对了!
回复

使用道具 举报

级别:普通观众 Lv.2

注册时间
2019-1-18
最后登录
2019-6-15
听众
5
收听
0
主题
0
蓝光币
35 枚
贡献
0 点
发表于 2019-1-18 23:54:51 | 显示全部楼层
楼主发贴辛苦了,谢谢楼主分享!我觉得中国高清电影网是注册对了!
回复

使用道具 举报

级别:群众演员 Lv.3

注册时间
2019-1-21
最后登录
2019-1-28
听众
4
收听
0
主题
0
蓝光币
42 枚
贡献
0 点
QQ
发表于 2019-1-21 21:09:11 | 显示全部楼层
楼主发贴辛苦了,谢谢楼主分享!我觉得中国高清电影网是注册对了!
回复

使用道具 举报

级别:专业龙套 Lv.4

注册时间
2019-1-21
最后登录
2019-2-17
听众
4
收听
0
主题
0
蓝光币
389 枚
贡献
0 点
发表于 2019-2-12 10:35:41 | 显示全部楼层
楼主发贴辛苦了,谢谢楼主分享!我觉得中国高清电影网是注册对了!
回复

使用道具 举报

级别:普通观众 Lv.2

注册时间
2019-2-18
最后登录
2019-6-7
听众
5
收听
0
主题
0
蓝光币
9 枚
贡献
0 点
QQ
发表于 2019-5-16 09:32:37 | 显示全部楼层
楼主发贴辛苦了,谢谢楼主分享!我觉得中国高清电影网是注册对了!
回复

使用道具 举报

*滑动验证:
懒得打字嘛,点击右侧快捷回复 【右侧内容,后台自定义】
您需要登录后才可以回帖 登录 | 立即注册

本版积分规则

QQ|Archiver|手机版|小黑屋| 中国高清网 |网站地图

GMT+8, 2019-6-18 19:15 , Processed in 0.200726 second(s), 47 queries .

Powered by HDchina X3.4

Copyright 2017-2019©HDchina.All right reserved

返回顶部 联系我们