你所知道的4K资源这里全部都有 4K电影 | 4K视频 | 4K壁纸 | 4K MV 怎么播放4K视频 | 4K电视演示片

教你玩转4K私人与家庭影院存储 NAS组装 | 黑群辉 家庭/影院Nas论坛

4K家庭影院信号源与视频设备知识 4K蓝光高清播放机 - 那个品牌好? 4K投影机论坛 | 4K电视机论坛

手把手教你搭建属于自己的家庭影院 4K家庭影院案例 | 家庭影院音频 4K家庭影院论坛

查看: 136|回复: 3

[动画片] 驯龙高手2/驯龙记2 How.to.Train.Your.Dragon.2.2014.1080p.BluRay.x264.DTS-X.7.1-SWTYBLZ 9.00GB

[复制链接]

 成长值: 730

级别:资源管理组

注册时间
2017-10-20
最后登录
2019-3-24
听众
0
收听
0
主题
76515
蓝光币
135276 枚
贡献
146324 点
发表于 2019-1-11 09:58:31 | 显示全部楼层 |阅读模式

驯龙高手2/驯龙记2 How.to.Train.Your.Dragon.2.2014.1080p.BluRay.x264.DTS-X.7.1-SWTYBLZ 9.00GB-1.jpg
◎译  名 驯龙高手2 / 驯龙记2(港)
◎片  名 驯龙高手2 How to Train Your Dragon 2
◎年  代 2014
◎国  家 美国
◎类  别 笑剧 / 动画 / 奇异 / 冒险
◎语  言 英语
◎上映日期 2014-08-14(中国大陆) / 2014-05-16(戛纳电影节) / 2014-06-13(美国)
◎IMDb评分  7.8/10 from 263,684 users
◎IMDb链接  http://www.imdb.com/title/tt1646971/
◎豆瓣评分 7.9/10 from 157407 users
◎豆瓣链接 https://movie.douban.com/subject/4824512/
◎片  长 102分钟
◎导  演 迪恩·德布洛斯
◎主  演 杰伊·巴鲁切尔
      凯特·布兰切特
      杰拉德·巴特勒
      克雷格·费格森
      亚美莉卡·费雷拉
      乔纳·希尔
      克里斯托夫·梅兹-普莱瑟
      T·J·米勒
      克里斯汀·韦格
      杰曼·翰苏
      基特·哈灵顿
      基隆·埃利奥特
      菲利普·麦格雷德
      安德鲁·埃布尔森
      吉迪恩·埃默里
      西蒙·卡斯安德斯
      兰迪·汤姆

◎简  介 

  年轻勇敢的维京勇士小嗝嗝 (杰伊·巴鲁切尔 Jay Baruchel 配音)驯服受伤的龙,更与它成为好友。经过五年时候,博克岛居民的生活完全渗透龙的气味。博克岛现已是个维京人与龙战争共存的天堂。
  但是,长大却意味着义务。为了寻觅答案,小嗝嗝与虔诚的没牙仔起头了他们的冒险旅程,但成果却超乎预感。一方面,小嗝嗝发现奥秘的驯龙骑士,正是失落多年的亲母沃尔卡(凯特·布兰切特 Cate Blanchett 配音);另一方面,嗜权的德雷格(杰曼·翰苏 Djimon Hounsou 配音)与龙猎人埃雷特(基特·哈灵顿 Kit Harington 配音)缔盟,威胁到博克岛上人与龙的战争。
  为了庇护深受大师爱好的龙,阿丝翠德(亚美莉卡·费雷拉 America Ferrera 配音)、高博(克雷格·费格森 Craig Ferguson 配音),维京伙伴们:鼻涕虫(乔纳·希尔 Jonah Hill 配音)、鱼脚司(克里斯托夫·梅兹-普莱瑟 Christopher Mintz-Plasse 配音)及双胞胎拉芙纳特(克里斯汀·韦格 Kristen Wiig 配音)、特夫纳特(托德·约瑟夫·米勒 T.J. Miller 配音)都脱手互助,加上小嗝嗝、身为部族的首领的父亲斯多戈(杰拉德·巴特勒 Gerard Butler 配音)及母亲连手合作。在这时代,小嗝嗝一向追随的答案就在不知不觉以意想不到的方式出现了……

◎获奖情况 

  第87届奥斯卡金像奖 (2015)
  最好动画长片(提名) 邦妮·阿诺德 /  迪恩·德布洛斯

  第72届金球奖 (2015)
  电影类 最好动画长片

  第42届动画安妮奖 (2015)
  最好动画长片
  最好导演 迪恩·德布洛斯
  最好编剧(提名) 迪恩·德布洛斯
  最好配乐 Jon Thor Birgisson /  约翰·鲍威尔
  最好剪辑 约翰·K·凯尔
  最好分镜
  最好动画脚色 Fabio Lignini
  最好动画脚色(提名) Steven Hornby
  最好动画结果(提名) Tobin Jones

  第86届美国国家批评协会奖 (2014)
  最好动画片

  第18届好莱坞电影奖 (2014)
  年度动画

  第13届华盛顿影评人协会奖 (2014)
  最好动画片(提名)

  第27届芝加哥影评人协会奖 (2014)
  最好动画片(提名)

  第18届美国在线影评人协会奖 (2014)
  最好动画片(提名)

  第16届美国青少年挑选奖 (2014)
  最好动画片(提名)
  最好动画配音(提名) 凯特·布兰切特

  第1届豆瓣电影年度榜单 (2014)
  评分最高的动画片(提名)
  8月最受关注电影


  1. Video
  2. ID                                       : 1
  3. Format                                   : AVC
  4. Format/Info                              : Advanced Video Codec
  5. Format profile                           : [url=/cdn-cgi/l/email-protection][email protected][/url]
  6. Format settings                          : CABAC / 5 Ref Frames
  7. Format settings, CABAC                   : Yes
  8. Format settings, ReFrames                : 5 frames
  9. Codec ID                                 : V_MPEG4/ISO/AVC
  10. Duration                                 : 1 h 41 min
  11. Bit rate                                 : 5 951 kb/s
  12. Width                                    : 1 920 pixels
  13. Height                                   : 816 pixels
  14. Display aspect ratio                     : 2.35:1
  15. Frame rate mode                          : Constant
  16. Frame rate                               : 23.976 (24000/1001) FPS
  17. Color space                              : YUV
  18. Chroma subsampling                       : 4:2:0
  19. Bit depth                                : 8 bits
  20. Scan type                                : Progressive
  21. Bits/(Pixel*Frame)                       : 0.158
  22. Stream size                              : 4.24 GiB (47%)
  23. Title                                    : How.to.Train.Your.Dragon.2.2014.1080p.BluRay.x264.DTS-X.7.1-SWTYBLZ
  24. Writing library                          : x264 core 157 r2935 545de2f
  25. Encoding settings                        : cabac=1 / ref=5 / deblock=1:1:1 / analyse=0x3:0x133 / me=umh / subme=10 / psy=1 / psy_rd=0.40:0.00 / mixed_ref=1 / me_range=48 / chroma_me=1 / trellis=2 / 8x8dct=1 / cqm=0 / deadzone=21,11 / fast_pskip=1 / chroma_qp_offset=-2 / threads=25 / lookahead_threads=6 / sliced_threads=0 / nr=0 / decimate=0 / interlaced=0 / bluray_compat=0 / constrained_intra=0 / bframes=10 / b_pyramid=2 / b_adapt=2 / b_bias=0 / direct=3 / weightb=1 / open_gop=0 / weightp=2 / keyint=250 / keyint_min=23 / scenecut=40 / intra_refresh=0 / rc_lookahead=60 / rc=crf / mbtree=1 / crf=15.0 / qcomp=0.60 / qpmin=0 / qpmax=69 / qpstep=4 / ip_ratio=1.40 / aq=1:0.60
  26. Default                                  : Yes
  27. Forced                                   : No

  28. Audio
  29. ID                                       : 2
  30. Format                                   : DTS XLL X
  31. Format/Info                              : Digital Theater Systems
  32. Commercial name                          : DTS-HD Master Audio
  33. Codec ID                                 : A_DTS
  34. Duration                                 : 1 h 41 min
  35. Bit rate mode                            : Variable
  36. Bit rate                                 : 6 553 kb/s
  37. Channel(s)                               : 8 channels
  38. Channel(s)_Original                      : Object Based
  39. Channel layout                           : Object Based
  40. Sampling rate                            : 48.0 kHz
  41. Frame rate                               : 93.750 FPS (512 SPF)
  42. Bit depth                                : 24 bits
  43. Delay relative to video                  : 17 ms
  44. Stream size                              : 4.66 GiB (52%)
  45. Title                                    : How.to.Train.Your.Dragon.2.2014.1080p.BluRay.x264.DTS-X.7.1-SWTYBLZ
  46. Language                                 : English
  47. Default                                  : Yes
  48. Forced                                   : No

  49. Text #1
  50. ID                                       : 3
  51. Format                                   : UTF-8
  52. Codec ID                                 : S_TEXT/UTF8
  53. Codec ID/Info                            : UTF-8 Plain Text
  54. Duration                                 : 1 h 31 min
  55. Bit rate                                 : 49 b/s
  56. Count of elements                        : 1369
  57. Stream size                              : 33.1 KiB (0%)
  58. Title                                    : English-SRT
  59. Language                                 : English
  60. Default                                  : Yes
  61. Forced                                   : No

  62. Text #2
  63. ID                                       : 4
  64. Format                                   : UTF-8
  65. Codec ID                                 : S_TEXT/UTF8
  66. Codec ID/Info                            : UTF-8 Plain Text
  67. Duration                                 : 1 h 40 min
  68. Bit rate                                 : 59 b/s
  69. Count of elements                        : 1930
  70. Stream size                              : 43.6 KiB (0%)
  71. Title                                    : English-SDH-SRT
  72. Language                                 : English
  73. Default                                  : No
  74. Forced                                   : No

  75. Text #3
  76. ID                                       : 5
  77. Format                                   : PGS
  78. Muxing mode                              : zlib
  79. Codec ID                                 : S_HDMV/PGS
  80. Codec ID/Info                            : Picture based subtitle format used on BDs/HD-DVDs
  81. Duration                                 : 1 h 40 min
  82. Bit rate                                 : 46.0 kb/s
  83. Count of elements                        : 3870
  84. Stream size                              : 33.1 MiB (0%)
  85. Title                                    : English-PGS
  86. Language                                 : English
  87. Default                                  : No
  88. Forced                                   : No

  89. Text #4
  90. ID                                       : 6
  91. Format                                   : PGS
  92. Muxing mode                              : zlib
  93. Codec ID                                 : S_HDMV/PGS
  94. Codec ID/Info                            : Picture based subtitle format used on BDs/HD-DVDs
  95. Duration                                 : 1 h 40 min
  96. Bit rate                                 : 31.4 kb/s
  97. Count of elements                        : 2252
  98. Stream size                              : 22.6 MiB (0%)
  99. Title                                    : Italian-PGS
  100. Language                                 : Italian
  101. Default                                  : No
  102. Forced                                   : No

  103. Text #5
  104. ID                                       : 7
  105. Format                                   : PGS
  106. Muxing mode                              : zlib
  107. Codec ID                                 : S_HDMV/PGS
  108. Codec ID/Info                            : Picture based subtitle format used on BDs/HD-DVDs
  109. Duration                                 : 1 h 40 min
  110. Bit rate                                 : 32.3 kb/s
  111. Count of elements                        : 2302
  112. Stream size                              : 23.2 MiB (0%)
  113. Title                                    : Spanish-PGS
  114. Language                                 : Spanish
  115. Default                                  : No
  116. Forced                                   : No

  117. Text #6
  118. ID                                       : 8
  119. Format                                   : PGS
  120. Muxing mode                              : zlib
  121. Codec ID                                 : S_HDMV/PGS
  122. Codec ID/Info                            : Picture based subtitle format used on BDs/HD-DVDs
  123. Duration                                 : 1 h 40 min
  124. Bit rate                                 : 33.1 kb/s
  125. Count of elements                        : 2228
  126. Stream size                              : 23.8 MiB (0%)
  127. Title                                    : Portuguese-PGS
  128. Language                                 : Portuguese
  129. Default                                  : No
  130. Forced                                   : No

  131. Text #7
  132. ID                                       : 9
  133. Format                                   : PGS
  134. Muxing mode                              : zlib
  135. Codec ID                                 : S_HDMV/PGS
  136. Codec ID/Info                            : Picture based subtitle format used on BDs/HD-DVDs
  137. Duration                                 : 1 h 40 min
  138. Bit rate                                 : 28.9 kb/s
  139. Count of elements                        : 2292
  140. Stream size                              : 20.8 MiB (0%)
  141. Title                                    : Czech-PGS
  142. Language                                 : Czech
  143. Default                                  : No
  144. Forced                                   : No

  145. Text #8
  146. ID                                       : 10
  147. Format                                   : PGS
  148. Muxing mode                              : zlib
  149. Codec ID                                 : S_HDMV/PGS
  150. Codec ID/Info                            : Picture based subtitle format used on BDs/HD-DVDs
  151. Duration                                 : 1 h 40 min
  152. Bit rate                                 : 30.6 kb/s
  153. Count of elements                        : 1868
  154. Stream size                              : 22.0 MiB (0%)
  155. Title                                    : Hungarian-PGS
  156. Language                                 : Hungarian
  157. Default                                  : No
  158. Forced                                   : No

  159. Text #9
  160. ID                                       : 11
  161. Format                                   : PGS
  162. Muxing mode                              : zlib
  163. Codec ID                                 : S_HDMV/PGS
  164. Codec ID/Info                            : Picture based subtitle format used on BDs/HD-DVDs
  165. Duration                                 : 1 h 40 min
  166. Bit rate                                 : 31.0 kb/s
  167. Count of elements                        : 2238
  168. Stream size                              : 22.3 MiB (0%)
  169. Title                                    : Polish-PGS
  170. Language                                 : Polish
  171. Default                                  : No
  172. Forced                                   : No

  173. Menu
  174. 00:00:00.000                             : :Chapter 1
  175. 00:03:31.920                             : :Chapter 2
  176. 00:05:24.615                             : :Chapter 3
  177. 00:07:49.927                             : :Chapter 4
  178. 00:10:19.952                             : :Chapter 5
  179. 00:13:20.257                             : :Chapter 6
  180. 00:17:02.980                             : :Chapter 7
  181. 00:20:05.621                             : :Chapter 8
  182. 00:23:47.175                             : :Chapter 9
  183. 00:27:18.386                             : :Chapter 10
  184. 00:29:25.388                             : :Chapter 11
  185. 00:33:45.857                             : :Chapter 12
  186. 00:37:09.393                             : :Chapter 13
  187. 00:39:10.890                             : :Chapter 14
  188. 00:41:03.085                             : :Chapter 15
  189. 00:45:07.913                             : :Chapter 16
  190. 00:47:20.546                             : :Chapter 17
  191. 00:51:55.445                             : :Chapter 18
  192. 00:54:39.651                             : :Chapter 19
  193. 00:56:19.918                             : :Chapter 20
  194. 01:00:37.091                             : :Chapter 21
  195. 01:04:32.702                             : :Chapter 22
  196. 01:06:38.869                             : :Chapter 23
  197. 01:09:48.058                             : :Chapter 24
  198. 01:14:05.023                             : :Chapter 25
  199. 01:18:39.047                             : :Chapter 26
  200. 01:21:11.074                             : :Chapter 27
  201. 01:22:58.974                             : :Chapter 28
  202. 01:24:33.985                             : :Chapter 29
  203. 01:28:08.574                             : :Chapter 30
  204. 01:31:07.420                             : :Chapter 31
  205. 01:32:25.915                             : :Chapter 32
复制代码

复制代码

驯龙高手2/驯龙记2 How.to.Train.Your.Dragon.2.2014.1080p.BluRay.x264.DTS-X.7.1-SWTYBLZ 9.00GB-2.png 驯龙高手2/驯龙记2 How.to.Train.Your.Dragon.2.2014.1080p.BluRay.x264.DTS-X.7.1-SWTYBLZ 9.00GB-3.png 驯龙高手2/驯龙记2 How.to.Train.Your.Dragon.2.2014.1080p.BluRay.x264.DTS-X.7.1-SWTYBLZ 9.00GB-4.png




回复

使用道具 举报

级别:普通观众 Lv.2

注册时间
2019-1-15
最后登录
2019-3-18
听众
1
收听
0
主题
0
蓝光币
18 枚
贡献
0 点
发表于 2019-1-15 23:20:08 | 显示全部楼层

既然你诚信诚意的推荐了,那我就勉为其难的看看吧!中国高清电影网不走平凡路。
回复

使用道具 举报

级别:专业龙套 Lv.4

注册时间
2019-1-21
最后登录
2019-2-17
听众
0
收听
0
主题
0
蓝光币
389 枚
贡献
0 点
发表于 2019-2-12 10:36:23 | 显示全部楼层
楼主发贴辛苦了,谢谢楼主分享!我觉得中国高清电影网是注册对了!
回复

使用道具 举报

级别:普通观众 Lv.2

注册时间
2019-2-26
最后登录
2019-3-23
听众
1
收听
0
主题
0
蓝光币
53 枚
贡献
0 点
发表于 2019-2-28 00:08:58 | 显示全部楼层
为看3做好准备,谢谢楼主发经典
回复

使用道具 举报

懒得打字嘛,点击右侧快捷回复 【右侧内容,后台自定义】
您需要登录后才可以回帖 登录 | 立即注册

本版积分规则

QQ|Archiver|手机版|小黑屋|中国高清网 |网站地图

GMT+8, 2019-3-24 10:27 , Processed in 0.226362 second(s), 41 queries .

Powered by HDchina X3.4

Copyright 2017-2018©HDchina.All right reserved

返回顶部 联系我们