你所知道的4K资源这里全部都有 4K电影 | 4K视频 | 4K壁纸 | 4K MV 怎么播放4K视频 | 4K电视演示片

教你玩转4K私人与家庭影院存储 NAS组装 | 黑群辉 家庭/影院Nas论坛

4K家庭影院信号源与视频设备知识 4K蓝光高清播放机 - 那个品牌好? 4K投影机论坛 | 4K电视机论坛

手把手教你搭建属于自己的家庭影院 4K家庭影院案例 | 家庭影院音频 4K家庭影院论坛

查看: 19|回复: 0

[喜剧片] 驯龙高手/驯龙记 How.to.Train.Your.Dragon.2010.1080p.BluRay.x264.DTS-SWTYBLZ 5.65GB

[复制链接]

 成长值: 70

级别:资源管理组

UID
1
注册时间
2017-10-20
最后登录
2019-1-17
听众
0
收听
0
主题
73857
蓝光币
114332 枚
贡献
143666 点
发表于 6 天前 | 显示全部楼层 |阅读模式

驯龙高手/驯龙记 How.to.Train.Your.Dragon.2010.1080p.BluRay.x264.DTS-SWTYBLZ 5.65GB-1.jpg
◎译  名 驯龙高手 / 驯龙记(港)
◎片  名 驯龙高手 How to Train Your Dragon
◎年  代 2010
◎国  家 美国
◎类  别 笑剧 / 动画 / 奇异 / 冒险
◎语  言 英语
◎上映日期 2010-05-14(中国大陆) / 2010-03-18(俄罗斯) / 2010-03-26(美国)
◎IMDb评分  8.1/10 from 590,127 users
◎IMDb链接  http://www.imdb.com/title/tt0892769/
◎豆瓣评分 8.7/10 from 359864 users
◎豆瓣链接 https://movie.douban.com/subject/2353023/
◎片  长 98分钟
◎导  演 迪恩·德布洛斯 / 克里斯·桑德斯
◎主  演 杰伊·巴鲁切尔
      杰拉德·巴特勒
      克雷格·费格森
      亚美莉卡·费雷拉
      乔纳·希尔
      克里斯托夫·梅兹-普莱瑟
      T·J·米勒
      克里斯汀·韦格
      罗宾·阿特金·唐斯
      菲利普·麦格雷德
      基隆·埃利奥特
      阿什利·詹森
      大卫·田纳特

◎简  介 

  维京岛国的少年小嗝嗝(杰伊?巴鲁切尔 Jay Baruchel 配音)是部落管辖巨大的斯托里克(杰拉德·巴特勒 Gerard Butler 配音)的儿子,他很是想像自己的父亲一样亲手屠龙——这些飞龙是岛上维京人放牧羊群的首要天敌——但他每次出现在部落屠龙的战役中都只给大师徒增懊恼。在一次匹敌飞龙的战役中,希卡普偷偷用射龙器击伤了一只最奥秘的“夜之怒龙”,并背着族人放生、饲养,甚至驯服了这只龙,还给它起名“无牙”。希卡普的奥秘行动引发了一同练习屠龙技能的女孩阿斯特丽德(亚美莉卡·费雷拉 America Ferrera 配音)的思疑。阿斯特丽德发现了希卡普的奥秘,却同时被身骑“无牙”御风而飞的美好体验所震动。格雷决议在屠龙成人礼上向远征归来的斯托里克和族人批注真相,压服大师放弃屠龙,却恰恰画蛇添足,害得“无牙”被俘,一场更大的灾难就在眼前……

◎获奖情况 

  第83届奥斯卡金像奖 (2011)
  最好动画长片(提名) 克里斯·桑德斯 /  迪恩·德布洛斯
  最好原创配乐(提名) 约翰·鲍威尔

  第67届威尼斯电影节 (2010)
  3-D电影奖 年度最具创意立体电影 克里斯·桑德斯

  第68届金球奖 (2011)
  电影类 最好动画长片(提名)

  第38届动画安妮奖 (2011)
  最好动画长片
  最好导演 克里斯·桑德斯 /  迪恩·德布洛斯
  最好编剧 克里斯·桑德斯 /  威廉姆·戴维斯 /  迪恩·德布洛斯
  最好配音(提名) 杰伊·巴鲁切尔 /  杰拉德·巴特勒
  最好配乐 约翰·鲍威尔
  最好分镜 汤姆·欧文斯
  最好分镜(提名) 亚历山德罗·卡罗尼
  最好艺术指导 Pierre-Olivier Vincent
  最好动画脚色 Gabe Hordos
  最好动画脚色(提名) Jakob Hjort Jensen /  David Torres
  最好脚色设想 Nicolas Marlet
  最好动画结果 Brett Miller
  最好动画结果(提名)

  第9届华盛顿影评人协会奖 (2010)
  最好动画片(提名)

  第15届圣地亚哥影评人协会奖 (2010)
  最好动画片(提名)

  第23届芝加哥影评人协会奖 (2010)
  最好动画片(提名)

  第10届凤凰城影评人协会奖 (2010)
  最好动画片(提名)

  第19届东南影评人协会奖 (2010)
  最好动画片(提名)

  第12届美国青少年挑选奖 (2010)
  最好动画片(提名)


  1. Video
  2. ID                                       : 1
  3. Format                                   : AVC
  4. Format/Info                              : Advanced Video Codec
  5. Format profile                           : [url=/cdn-cgi/l/email-protection][email protected][/url]
  6. Format settings                          : CABAC / 5 Ref Frames
  7. Format settings, CABAC                   : Yes
  8. Format settings, ReFrames                : 5 frames
  9. Codec ID                                 : V_MPEG4/ISO/AVC
  10. Duration                                 : 1 h 38 min
  11. Bit rate                                 : 6 734 kb/s
  12. Width                                    : 1 920 pixels
  13. Height                                   : 816 pixels
  14. Display aspect ratio                     : 2.35:1
  15. Frame rate mode                          : Constant
  16. Frame rate                               : 23.976 (24000/1001) FPS
  17. Color space                              : YUV
  18. Chroma subsampling                       : 4:2:0
  19. Bit depth                                : 8 bits
  20. Scan type                                : Progressive
  21. Bits/(Pixel*Frame)                       : 0.179
  22. Stream size                              : 4.62 GiB (82%)
  23. Title                                    : How.to.Train.Your.Dragon.2010.1080p.BluRay.x264.DTS-SWTYBLZ
  24. Writing library                          : x264 core 157 r2935 545de2f
  25. Encoding settings                        : cabac=1 / ref=5 / deblock=1:1:1 / analyse=0x3:0x133 / me=umh / subme=10 / psy=1 / psy_rd=0.40:0.00 / mixed_ref=1 / me_range=48 / chroma_me=1 / trellis=2 / 8x8dct=1 / cqm=0 / deadzone=21,11 / fast_pskip=1 / chroma_qp_offset=-2 / threads=25 / lookahead_threads=6 / sliced_threads=0 / nr=0 / decimate=0 / interlaced=0 / bluray_compat=0 / constrained_intra=0 / bframes=10 / b_pyramid=2 / b_adapt=2 / b_bias=0 / direct=3 / weightb=1 / open_gop=0 / weightp=2 / keyint=250 / keyint_min=23 / scenecut=40 / intra_refresh=0 / rc_lookahead=60 / rc=crf / mbtree=1 / crf=14.0 / qcomp=0.60 / qpmin=0 / qpmax=69 / qpstep=4 / ip_ratio=1.40 / aq=1:0.60
  26. Language                                 : English
  27. Default                                  : Yes
  28. Forced                                   : No

  29. Audio
  30. ID                                       : 2
  31. Format                                   : DTS
  32. Format/Info                              : Digital Theater Systems
  33. Codec ID                                 : A_DTS
  34. Duration                                 : 1 h 38 min
  35. Bit rate mode                            : Constant
  36. Bit rate                                 : 1 509 kb/s
  37. Channel(s)                               : 6 channels
  38. Channel layout                           : C L R Ls Rs LFE
  39. Sampling rate                            : 48.0 kHz
  40. Frame rate                               : 93.750 FPS (512 SPF)
  41. Bit depth                                : 24 bits
  42. Compression mode                         : Lossy
  43. Stream size                              : 1.03 GiB (18%)
  44. Title                                    : How.to.Train.Your.Dragon.2010.1080p.BluRay.x264.DTS-SWTYBLZ
  45. Language                                 : English
  46. Default                                  : Yes
  47. Forced                                   : No

  48. Text #1
  49. ID                                       : 3
  50. Format                                   : UTF-8
  51. Codec ID                                 : S_TEXT/UTF8
  52. Codec ID/Info                            : UTF-8 Plain Text
  53. Duration                                 : 1 h 28 min
  54. Bit rate                                 : 46 b/s
  55. Count of elements                        : 916
  56. Stream size                              : 29.9 KiB (0%)
  57. Language                                 : English
  58. Default                                  : Yes
  59. Forced                                   : No

  60. Text #2
  61. ID                                       : 4
  62. Format                                   : UTF-8
  63. Codec ID                                 : S_TEXT/UTF8
  64. Codec ID/Info                            : UTF-8 Plain Text
  65. Duration                                 : 1 h 30 min
  66. Bit rate                                 : 52 b/s
  67. Count of elements                        : 1193
  68. Stream size                              : 34.9 KiB (0%)
  69. Title                                    : SDH
  70. Language                                 : English
  71. Default                                  : No
  72. Forced                                   : No

  73. Menu
  74. 00:00:00.000                             : :Chapter 1
  75. 00:09:03.793                             : :Chapter 2
  76. 00:11:56.006                             : :Chapter 3
  77. 00:15:35.059                             : :Chapter 4
  78. 00:22:21.089                             : :Chapter 5
  79. 00:28:05.725                             : :Chapter 6
  80. 00:33:38.224                             : :Chapter 7
  81. 00:39:31.160                             : :Chapter 8
  82. 00:43:52.713                             : :Chapter 9
  83. 00:47:32.391                             : :Chapter 10
  84. 00:50:11.216                             : :Chapter 11
  85. 01:00:19.824                             : :Chapter 12
  86. 01:05:11.407                             : :Chapter 13
  87. 01:09:52.188                             : :Chapter 14
  88. 01:13:02.211                             : :Chapter 15
  89. 01:23:50.066                             : :Chapter 16
  90. 01:29:18.519                             : :Chapter 17
复制代码

复制代码

驯龙高手/驯龙记 How.to.Train.Your.Dragon.2010.1080p.BluRay.x264.DTS-SWTYBLZ 5.65GB-2.png 驯龙高手/驯龙记 How.to.Train.Your.Dragon.2010.1080p.BluRay.x264.DTS-SWTYBLZ 5.65GB-3.png 驯龙高手/驯龙记 How.to.Train.Your.Dragon.2010.1080p.BluRay.x264.DTS-SWTYBLZ 5.65GB-4.png





回复

使用道具 举报

懒得打字嘛,点击右侧快捷回复 【右侧内容,后台自定义】
您需要登录后才可以回帖 登录 | 立即注册

本版积分规则

QQ|Archiver|手机版|小黑屋|中国高清网 |网站地图

GMT+8, 2019-1-17 12:40 , Processed in 0.141214 second(s), 41 queries .

Powered by HDchina X3.4

Copyright 2017-2018©HDchina.All right reserved

返回顶部 联系我们