你所知道的4K资源这里全部都有 4K电影 | 4K视频 | 4K壁纸 | 4K MV 怎么播放4K视频 | 4K电视演示片

教你玩转4K私人与家庭影院存储 NAS组装 | 黑群辉 家庭/影院Nas论坛

4K家庭影院信号源与视频设备知识 4K蓝光高清播放机 - 那个品牌好? 4K投影机论坛 | 4K电视机论坛

手把手教你搭建属于自己的家庭影院 4K家庭影院案例 | 家庭影院音频 4K家庭影院论坛

查看: 102|回复: 1

[动画片] 驯龙高手/驯龙记 How.to.Train.Your.Dragon.2010.1080p.BluRay.x264.DTS-X.7.1-SWTYBLZ 8.51GB

[复制链接]

 成长值: 730

级别:资源管理组

注册时间
2017-10-20
最后登录
2019-3-24
听众
0
收听
0
主题
76515
蓝光币
135274 枚
贡献
146324 点
发表于 2019-1-11 09:34:32 | 显示全部楼层 |阅读模式

驯龙高手/驯龙记 How.to.Train.Your.Dragon.2010.1080p.BluRay.x264.DTS-X.7.1-SWTYBLZ 8.51GB-1.jpg
◎译  名 驯龙高手 / 驯龙记(港)
◎片  名 驯龙高手 How to Train Your Dragon
◎年  代 2010
◎国  家 美国
◎类  别 笑剧 / 动画 / 奇异 / 冒险
◎语  言 英语
◎上映日期 2010-05-14(中国大陆) / 2010-03-18(俄罗斯) / 2010-03-26(美国)
◎IMDb评分  8.1/10 from 590,127 users
◎IMDb链接  http://www.imdb.com/title/tt0892769/
◎豆瓣评分 8.7/10 from 359864 users
◎豆瓣链接 https://movie.douban.com/subject/2353023/
◎片  长 98分钟
◎导  演 迪恩·德布洛斯 / 克里斯·桑德斯
◎主  演 杰伊·巴鲁切尔
      杰拉德·巴特勒
      克雷格·费格森
      亚美莉卡·费雷拉
      乔纳·希尔
      克里斯托夫·梅兹-普莱瑟
      T·J·米勒
      克里斯汀·韦格
      罗宾·阿特金·唐斯
      菲利普·麦格雷德
      基隆·埃利奥特
      阿什利·詹森
      大卫·田纳特

◎简  介 

  维京岛国的少年小嗝嗝(杰伊?巴鲁切尔 Jay Baruchel 配音)是部落管辖巨大的斯托里克(杰拉德·巴特勒 Gerard Butler 配音)的儿子,他很是想像自己的父亲一样亲手屠龙——这些飞龙是岛上维京人放牧羊群的首要天敌——但他每次出现在部落屠龙的战役中都只给大师徒增懊恼。在一次匹敌飞龙的战役中,希卡普偷偷用射龙器击伤了一只最奥秘的“夜之怒龙”,并背着族人放生、饲养,甚至驯服了这只龙,还给它起名“无牙”。希卡普的奥秘行动引发了一同练习屠龙技能的女孩阿斯特丽德(亚美莉卡·费雷拉 America Ferrera 配音)的思疑。阿斯特丽德发现了希卡普的奥秘,却同时被身骑“无牙”御风而飞的美好体验所震动。格雷决议在屠龙成人礼上向远征归来的斯托里克和族人批注真相,压服大师放弃屠龙,却恰恰画蛇添足,害得“无牙”被俘,一场更大的灾难就在眼前……

◎获奖情况 

  第83届奥斯卡金像奖 (2011)
  最好动画长片(提名) 克里斯·桑德斯 /  迪恩·德布洛斯
  最好原创配乐(提名) 约翰·鲍威尔

  第67届威尼斯电影节 (2010)
  3-D电影奖 年度最具创意立体电影 克里斯·桑德斯

  第68届金球奖 (2011)
  电影类 最好动画长片(提名)

  第38届动画安妮奖 (2011)
  最好动画长片
  最好导演 克里斯·桑德斯 /  迪恩·德布洛斯
  最好编剧 克里斯·桑德斯 /  威廉姆·戴维斯 /  迪恩·德布洛斯
  最好配音(提名) 杰伊·巴鲁切尔 /  杰拉德·巴特勒
  最好配乐 约翰·鲍威尔
  最好分镜 汤姆·欧文斯
  最好分镜(提名) 亚历山德罗·卡罗尼
  最好艺术指导 Pierre-Olivier Vincent
  最好动画脚色 Gabe Hordos
  最好动画脚色(提名) Jakob Hjort Jensen /  David Torres
  最好脚色设想 Nicolas Marlet
  最好动画结果 Brett Miller
  最好动画结果(提名)

  第9届华盛顿影评人协会奖 (2010)
  最好动画片(提名)

  第15届圣地亚哥影评人协会奖 (2010)
  最好动画片(提名)

  第23届芝加哥影评人协会奖 (2010)
  最好动画片(提名)

  第10届凤凰城影评人协会奖 (2010)
  最好动画片(提名)

  第19届东南影评人协会奖 (2010)
  最好动画片(提名)

  第12届美国青少年挑选奖 (2010)
  最好动画片(提名)


  1. Video
  2. ID                                       : 1
  3. Format                                   : AVC
  4. Format/Info                              : Advanced Video Codec
  5. Format profile                           : [url=/cdn-cgi/l/email-protection][email protected][/url]
  6. Format settings                          : CABAC / 5 Ref Frames
  7. Format settings, CABAC                   : Yes
  8. Format settings, ReFrames                : 5 frames
  9. Codec ID                                 : V_MPEG4/ISO/AVC
  10. Duration                                 : 1 h 38 min
  11. Bit rate                                 : 6 734 kb/s
  12. Width                                    : 1 920 pixels
  13. Height                                   : 816 pixels
  14. Display aspect ratio                     : 2.35:1
  15. Frame rate mode                          : Constant
  16. Frame rate                               : 23.976 (24000/1001) FPS
  17. Color space                              : YUV
  18. Chroma subsampling                       : 4:2:0
  19. Bit depth                                : 8 bits
  20. Scan type                                : Progressive
  21. Bits/(Pixel*Frame)                       : 0.179
  22. Stream size                              : 4.62 GiB (54%)
  23. Title                                    : How.to.Train.Your.Dragon.2010.1080p.BluRay.x264.DTS-X.7.1-SWTYBLZ
  24. Writing library                          : x264 core 157 r2935 545de2f
  25. Encoding settings                        : cabac=1 / ref=5 / deblock=1:1:1 / analyse=0x3:0x133 / me=umh / subme=10 / psy=1 / psy_rd=0.40:0.00 / mixed_ref=1 / me_range=48 / chroma_me=1 / trellis=2 / 8x8dct=1 / cqm=0 / deadzone=21,11 / fast_pskip=1 / chroma_qp_offset=-2 / threads=25 / lookahead_threads=6 / sliced_threads=0 / nr=0 / decimate=0 / interlaced=0 / bluray_compat=0 / constrained_intra=0 / bframes=10 / b_pyramid=2 / b_adapt=2 / b_bias=0 / direct=3 / weightb=1 / open_gop=0 / weightp=2 / keyint=250 / keyint_min=23 / scenecut=40 / intra_refresh=0 / rc_lookahead=60 / rc=crf / mbtree=1 / crf=14.0 / qcomp=0.60 / qpmin=0 / qpmax=69 / qpstep=4 / ip_ratio=1.40 / aq=1:0.60
  26. Default                                  : Yes
  27. Forced                                   : No

  28. Audio
  29. ID                                       : 2
  30. Format                                   : DTS XLL X
  31. Format/Info                              : Digital Theater Systems
  32. Commercial name                          : DTS-HD Master Audio
  33. Codec ID                                 : A_DTS
  34. Duration                                 : 1 h 38 min
  35. Bit rate mode                            : Variable
  36. Bit rate                                 : 5 554 kb/s
  37. Channel(s)                               : 8 channels
  38. Channel(s)_Original                      : Object Based
  39. Channel layout                           : Object Based
  40. Sampling rate                            : 48.0 kHz
  41. Frame rate                               : 93.750 FPS (512 SPF)
  42. Bit depth                                : 24 bits
  43. Stream size                              : 3.81 GiB (45%)
  44. Title                                    : How.to.Train.Your.Dragon.2010.1080p.BluRay.x264.DTS-X.7.1-SWTYBLZ
  45. Language                                 : English
  46. Default                                  : Yes
  47. Forced                                   : No

  48. Text #1
  49. ID                                       : 3
  50. Format                                   : UTF-8
  51. Codec ID                                 : S_TEXT/UTF8
  52. Codec ID/Info                            : UTF-8 Plain Text
  53. Duration                                 : 1 h 28 min
  54. Bit rate                                 : 46 b/s
  55. Count of elements                        : 916
  56. Stream size                              : 29.9 KiB (0%)
  57. Title                                    : English-SRT
  58. Language                                 : English
  59. Default                                  : Yes
  60. Forced                                   : No

  61. Text #2
  62. ID                                       : 4
  63. Format                                   : UTF-8
  64. Codec ID                                 : S_TEXT/UTF8
  65. Codec ID/Info                            : UTF-8 Plain Text
  66. Duration                                 : 1 h 30 min
  67. Bit rate                                 : 52 b/s
  68. Count of elements                        : 1193
  69. Stream size                              : 34.9 KiB (0%)
  70. Title                                    : English-SDH-SRT
  71. Language                                 : English
  72. Default                                  : No
  73. Forced                                   : No

  74. Text #3
  75. ID                                       : 5
  76. Format                                   : PGS
  77. Muxing mode                              : zlib
  78. Codec ID                                 : S_HDMV/PGS
  79. Codec ID/Info                            : Picture based subtitle format used on BDs/HD-DVDs
  80. Duration                                 : 1 h 30 min
  81. Bit rate                                 : 39.1 kb/s
  82. Count of elements                        : 2395
  83. Stream size                              : 25.3 MiB (0%)
  84. Title                                    : English-PGS
  85. Language                                 : English
  86. Default                                  : No
  87. Forced                                   : No

  88. Text #4
  89. ID                                       : 6
  90. Format                                   : PGS
  91. Muxing mode                              : zlib
  92. Codec ID                                 : S_HDMV/PGS
  93. Codec ID/Info                            : Picture based subtitle format used on BDs/HD-DVDs
  94. Duration                                 : 1 h 37 min
  95. Bit rate                                 : 26.7 kb/s
  96. Count of elements                        : 1637
  97. Stream size                              : 18.5 MiB (0%)
  98. Title                                    : Italian-PGS
  99. Language                                 : Italian
  100. Default                                  : No
  101. Forced                                   : No

  102. Text #5
  103. ID                                       : 7
  104. Format                                   : PGS
  105. Muxing mode                              : zlib
  106. Codec ID                                 : S_HDMV/PGS
  107. Codec ID/Info                            : Picture based subtitle format used on BDs/HD-DVDs
  108. Duration                                 : 1 h 37 min
  109. Bit rate                                 : 30.2 kb/s
  110. Count of elements                        : 1749
  111. Stream size                              : 21.0 MiB (0%)
  112. Title                                    : Spanish-PGS
  113. Language                                 : Spanish
  114. Default                                  : No
  115. Forced                                   : No

  116. Text #6
  117. ID                                       : 8
  118. Format                                   : PGS
  119. Muxing mode                              : zlib
  120. Codec ID                                 : S_HDMV/PGS
  121. Codec ID/Info                            : Picture based subtitle format used on BDs/HD-DVDs
  122. Duration                                 : 1 h 37 min
  123. Bit rate                                 : 30.1 kb/s
  124. Count of elements                        : 1746
  125. Stream size                              : 20.9 MiB (0%)
  126. Title                                    : Portuguese-PGS
  127. Language                                 : Portuguese
  128. Default                                  : No
  129. Forced                                   : No

  130. Text #7
  131. ID                                       : 9
  132. Format                                   : PGS
  133. Muxing mode                              : zlib
  134. Codec ID                                 : S_HDMV/PGS
  135. Codec ID/Info                            : Picture based subtitle format used on BDs/HD-DVDs
  136. Duration                                 : 1 h 37 min
  137. Bit rate                                 : 26.6 kb/s
  138. Count of elements                        : 1743
  139. Stream size                              : 18.5 MiB (0%)
  140. Title                                    : Czech-PGS
  141. Language                                 : Czech
  142. Default                                  : No
  143. Forced                                   : No

  144. Text #8
  145. ID                                       : 10
  146. Format                                   : PGS
  147. Muxing mode                              : zlib
  148. Codec ID                                 : S_HDMV/PGS
  149. Codec ID/Info                            : Picture based subtitle format used on BDs/HD-DVDs
  150. Duration                                 : 1 h 37 min
  151. Bit rate                                 : 27.4 kb/s
  152. Count of elements                        : 1745
  153. Stream size                              : 19.0 MiB (0%)
  154. Title                                    : Hungarian-PGS
  155. Language                                 : Hungarian
  156. Default                                  : No
  157. Forced                                   : No

  158. Text #9
  159. ID                                       : 11
  160. Format                                   : PGS
  161. Muxing mode                              : zlib
  162. Codec ID                                 : S_HDMV/PGS
  163. Codec ID/Info                            : Picture based subtitle format used on BDs/HD-DVDs
  164. Duration                                 : 1 h 37 min
  165. Bit rate                                 : 27.6 kb/s
  166. Count of elements                        : 1725
  167. Stream size                              : 19.2 MiB (0%)
  168. Title                                    : Polish-PGS
  169. Language                                 : Polish
  170. Default                                  : No
  171. Forced                                   : No

  172. Menu
  173. 00:00:00.000                             : :Chapter 1
  174. 00:09:03.793                             : :Chapter 2
  175. 00:11:56.006                             : :Chapter 3
  176. 00:15:35.059                             : :Chapter 4
  177. 00:22:21.089                             : :Chapter 5
  178. 00:28:05.725                             : :Chapter 6
  179. 00:33:38.224                             : :Chapter 7
  180. 00:39:31.160                             : :Chapter 8
  181. 00:43:52.713                             : :Chapter 9
  182. 00:47:32.391                             : :Chapter 10
  183. 00:50:11.216                             : :Chapter 11
  184. 01:00:19.824                             : :Chapter 12
  185. 01:05:11.407                             : :Chapter 13
  186. 01:09:52.188                             : :Chapter 14
  187. 01:13:02.211                             : :Chapter 15
  188. 01:23:50.066                             : :Chapter 16
  189. 01:29:18.519                             : :Chapter 17
复制代码

复制代码

驯龙高手/驯龙记 How.to.Train.Your.Dragon.2010.1080p.BluRay.x264.DTS-X.7.1-SWTYBLZ 8.51GB-2.png 驯龙高手/驯龙记 How.to.Train.Your.Dragon.2010.1080p.BluRay.x264.DTS-X.7.1-SWTYBLZ 8.51GB-3.png 驯龙高手/驯龙记 How.to.Train.Your.Dragon.2010.1080p.BluRay.x264.DTS-X.7.1-SWTYBLZ 8.51GB-4.png





回复

使用道具 举报

级别:普通观众 Lv.2

注册时间
2018-8-10
最后登录
2019-3-4
听众
2
收听
0
主题
0
蓝光币
71 枚
贡献
0 点
发表于 2019-1-16 14:26:35 | 显示全部楼层
感谢楼主分享
回复

使用道具 举报

懒得打字嘛,点击右侧快捷回复 【右侧内容,后台自定义】
您需要登录后才可以回帖 登录 | 立即注册

本版积分规则

QQ|Archiver|手机版|小黑屋|中国高清网 |网站地图

GMT+8, 2019-3-24 10:25 , Processed in 0.209345 second(s), 41 queries .

Powered by HDchina X3.4

Copyright 2017-2018©HDchina.All right reserved

返回顶部 联系我们