你所知道的4K资源这里全部都有 4K电影 | 4K视频 | 4K壁纸 | 4K MV 怎么播放4K视频 | 4K电视演示片

教你玩转4K私人与家庭影院存储 NAS组装 | 黑群辉 家庭/影院Nas论坛

4K家庭影院信号源与视频设备知识 4K蓝光高清播放机 - 那个品牌好? 4K投影机论坛 | 4K电视机论坛

手把手教你搭建属于自己的家庭影院 4K家庭影院案例 | 家庭影院音频 4K家庭影院论坛

查看: 29|回复: 1

[惊悚片] 欢迎回家 Welcome.Home.2018.1080p.BluRay.x264-RUSTED 6.55GB

[复制链接]

 成长值: 70

级别:资源管理组

UID
1
注册时间
2017-10-20
最后登录
2019-1-17
听众
0
收听
0
主题
73857
蓝光币
114354 枚
贡献
143666 点
发表于 7 天前 | 显示全部楼层 |阅读模式

接待回家 Welcome.Home.2018.1080p.BluRay.x264-RUSTED 6.55GB-1.jpg
◎译  名 接待回家
◎片  名 接待回家 Welcome Home
◎年  代 2019
◎国  家 美国
◎类  别 惊悚
◎语  言 英语
◎上映日期 2018-09-08(新西兰)
◎IMDb评分  5.1/10 from 922 users
◎IMDb链接  http://www.imdb.com/title/tt6829180/
◎豆瓣评分 今朝无人评价
◎豆瓣链接 https://movie.douban.com/subject/27029491/
◎片  长 无片长信息
◎导  演 乔治·拉提夫
◎主  演 亚伦·保尔
      艾米丽·拉塔科斯基
      里卡多·斯卡马乔

◎简  介 

  亚伦·保尔和艾米丽·拉塔科斯基将加盟新片[接待回家](Welcome Home,暂译)。[荒宅遗言]编剧David Levinson执笔该片剧本。“小粉”和艾米丽将饰演周末在意大利农村度假的一对情侣,他们试图修复相互关系。但很快他们成了房东凶险计划的受害者。电影将于5月底在意大利托斯卡纳开拍。


  1. Video
  2. ID                                       : 1
  3. Format                                   : AVC
  4. Format/Info                              : Advanced Video Codec
  5. Format profile                           : [url=/cdn-cgi/l/email-protection][email protected][/url]
  6. Format settings                          : CABAC / 5 Ref Frames
  7. Format settings, CABAC                   : Yes
  8. Format settings, ReFrames                : 5 frames
  9. Codec ID                                 : V_MPEG4/ISO/AVC
  10. Duration                                 : 1 h 37 min
  11. Bit rate                                 : 8 077 kb/s
  12. Width                                    : 1 920 pixels
  13. Height                                   : 800 pixels
  14. Display aspect ratio                     : 2.40:1
  15. Frame rate mode                          : Constant
  16. Frame rate                               : 23.976 (24000/1001) FPS
  17. Color space                              : YUV
  18. Chroma subsampling                       : 4:2:0
  19. Bit depth                                : 8 bits
  20. Scan type                                : Progressive
  21. Bits/(Pixel*Frame)                       : 0.219
  22. Stream size                              : 5.52 GiB (84%)
  23. Writing library                          : x264 core 157 r2935 545de2f
  24. Encoding settings                        : cabac=1 / ref=5 / deblock=1:-1:-1 / analyse=0x3:0x133 / me=umh / subme=8 / psy=1 / psy_rd=1.00:0.15 / mixed_ref=1 / me_range=16 / chroma_me=1 / trellis=1 / 8x8dct=1 / cqm=0 / deadzone=21,11 / fast_pskip=0 / chroma_qp_offset=-4 / threads=24 / lookahead_threads=4 / sliced_threads=0 / nr=0 / decimate=1 / interlaced=0 / bluray_compat=0 / constrained_intra=0 / bframes=3 / b_pyramid=2 / b_adapt=2 / b_bias=0 / direct=3 / weightb=1 / open_gop=0 / weightp=2 / keyint=240 / keyint_min=23 / scenecut=40 / intra_refresh=0 / rc_lookahead=50 / rc=2pass / mbtree=1 / bitrate=8077 / ratetol=1.0 / qcomp=0.60 / qpmin=10 / qpmax=69 / qpstep=4 / cplxblur=20.0 / qblur=0.5 / ip_ratio=1.40 / aq=1:1.00
  25. Language                                 : English
  26. Default                                  : Yes
  27. Forced                                   : No

  28. Audio
  29. ID                                       : 2
  30. Format                                   : DTS
  31. Format/Info                              : Digital Theater Systems
  32. Codec ID                                 : A_DTS
  33. Duration                                 : 1 h 37 min
  34. Bit rate mode                            : Constant
  35. Bit rate                                 : 1 509 kb/s
  36. Channel(s)                               : 6 channels
  37. Channel layout                           : C L R Ls Rs LFE
  38. Sampling rate                            : 48.0 kHz
  39. Frame rate                               : 93.750 FPS (512 SPF)
  40. Bit depth                                : 24 bits
  41. Compression mode                         : Lossy
  42. Stream size                              : 1.03 GiB (16%)
  43. Language                                 : English
  44. Default                                  : Yes
  45. Forced                                   : No

  46. Text
  47. ID                                       : 3
  48. Format                                   : UTF-8
  49. Codec ID                                 : S_TEXT/UTF8
  50. Codec ID/Info                            : UTF-8 Plain Text
  51. Duration                                 : 10 min 11 s
  52. Bit rate                                 : 3 b/s
  53. Count of elements                        : 12
  54. Stream size                              : 296 Bytes (0%)
  55. Title                                    : English Forcedyes
  56. Language                                 : English
  57. Default                                  : Yes
  58. Forced                                   : Yes

  59. Menu
  60. 00:00:00.000                             : en:00:00:00.000
  61. 00:06:42.068                             : en:00:06:42.068
  62. 00:12:26.996                             : en:00:12:26.996
  63. 00:18:53.007                             : en:00:18:53.007
  64. 00:25:27.943                             : en:00:25:27.943
  65. 00:32:08.051                             : en:00:32:08.051
  66. 00:37:09.394                             : en:00:37:09.394
  67. 00:42:48.941                             : en:00:42:48.941
  68. 00:48:54.390                             : en:00:48:54.390
  69. 00:53:10.687                             : en:00:53:10.687
  70. 00:59:34.780                             : en:00:59:34.780
  71. 01:05:20.792                             : en:01:05:20.792
  72. 01:10:48.744                             : en:01:10:48.744
  73. 01:16:07.146                             : en:01:16:07.146
  74. 01:22:30.237                             : en:01:22:30.237
  75. 01:28:50.367                             : en:01:28:50.367
  76. 01:34:49.434                             : en:01:34:49.434
复制代码

复制代码

接待回家 Welcome.Home.2018.1080p.BluRay.x264-RUSTED 6.55GB-2.jpg




回复

使用道具 举报

级别:普通观众 Lv.2

UID
12926
注册时间
2018-12-25
最后登录
2019-1-13
听众
0
收听
0
主题
0
蓝光币
20 枚
贡献
0 点
发表于 6 天前 | 显示全部楼层

其实我一直觉得楼主的品味不错!呵呵!中国高清电影网太棒了!
回复

使用道具 举报

懒得打字嘛,点击右侧快捷回复 【右侧内容,后台自定义】
您需要登录后才可以回帖 登录 | 立即注册

本版积分规则

QQ|Archiver|手机版|小黑屋|中国高清网 |网站地图

GMT+8, 2019-1-17 13:41 , Processed in 0.123230 second(s), 41 queries .

Powered by HDchina X3.4

Copyright 2017-2018©HDchina.All right reserved

返回顶部 联系我们