你所知道的4K资源这里全部都有 4K电影 | 4K视频 | 4K壁纸 | 4K MV 怎么播放4K视频 | 4K电视演示片

教你玩转4K私人与家庭影院存储 NAS组装 | 黑群辉 家庭/影院Nas论坛

4K家庭影院信号源与视频设备知识 4K蓝光高清播放机 - 那个品牌好? 4K投影机论坛 | 4K电视机论坛

手把手教你搭建属于自己的家庭影院 4K家庭影院案例 | 家庭影院音频 4K家庭影院论坛

查看: 23|回复: 0

[剧情片] 老人和枪/老人与枪 The.Old.Man.And.The.Gun.2018.1080p.BluRay.x264-Replica 7.71GB

[复制链接]

 成长值: 70

级别:资源管理组

UID
1
注册时间
2017-10-20
最后登录
2019-1-17
听众
0
收听
0
主题
73857
蓝光币
114332 枚
贡献
143666 点
发表于 7 天前 | 显示全部楼层 |阅读模式

老人和枪/老人与枪 The.Old.Man.And.The.Gun.2018.1080p.BluRay.x264-Replica 7.71GB-1.jpg
◎译  名 老人和枪 / 老人与枪
◎片  名 老人和枪 The Old Man and the Gun
◎年  代 2018
◎国  家 美国
◎类  别 剧情 / 笑剧 / 犯罪
◎语  言 英语
◎上映日期 2018-08-31(特柳赖德电影节) / 2018-09-28(美国)
◎IMDb评分  7.0/10 from 10,111 users
◎IMDb链接  http://www.imdb.com/title/tt2837574/
◎豆瓣评分 7.2/10 from 2002 users
◎豆瓣链接 https://movie.douban.com/subject/24299053/
◎片  长 93分钟
◎导  演 大卫·洛维
◎主  演 罗伯特·雷德福
      茜茜·斯派塞克
      卡西·阿弗莱克
      丹尼·格洛弗
      汤姆·威兹
      提卡·森普特
      阿勒·伊丽莎白·约翰逊
      蒂根·约翰逊
      吉因·琼斯
      约翰·大卫·华盛顿
      巴洛·雅克布斯
      奥古斯丁·弗里泽尔
      小伊塞亚·维特洛克
      丽雅·罗伯茨
      伊丽莎白·莫斯
      阿尔菲厄斯·格林
      基思·卡拉丹
      肯妮莎·汤普森
      罗伯特·朗斯特里特
      乔丹·崔威里恩
      托比·豪布鲁克斯
      克里斯汀·岱伊
      拉里·杰克·唐森
      帕姆·多尔蒂

◎简  介 

  奥斯卡影帝凯西·阿弗莱克(Casey Affleck)日前加盟新片《老人与枪》(Old Man And The Gun),该片由罗伯特·雷德福(Robert Redford)主演,按照《纽约客》上的一篇文章改编。
  福瑞斯特·塔克(Forrest Tucker)打从少年时就是个犯警之徒,抢银行就是他的职业,进过十几次班房的履历还让他练就了“逃狱”的本事——一共18次逃狱,比来一次时他已70岁高龄!
  《老人与枪》侧重刻画塔克晚年的一次抢劫,罗伯特·雷德福将饰演“塔克”,凯西·阿弗莱克饰演被这位怪异罪犯深深吸引的侦察。此外还有67岁的奥斯卡影后茜茜·斯帕塞克(Sissy Spacek),她会饰演爱上这名老年罪犯的密斯。
  《老人与枪》由大卫·劳瑞(David Lowery)导演,福克斯探照灯公司刊行,今年4月3日将在辛辛那提开机。

◎获奖情况 

  第76届金球奖 (2019)
  电影类 音乐/笑剧片最好男配角(提名) 罗伯特·雷德福

  第90届美国国家批评协会奖 (2018)
  十佳自力电影

  第23届金卫星奖 (2019)
  电影部分 剧情片最好男配角(提名) 罗伯特·雷德福


  1. Video
  2. ID                                       : 1
  3. Format                                   : AVC
  4. Format/Info                              : Advanced Video Codec
  5. Format profile                           : [url=/cdn-cgi/l/email-protection][email protected][/url]
  6. Format settings                          : CABAC / 5 Ref Frames
  7. Format settings, CABAC                   : Yes
  8. Format settings, ReFrames                : 5 frames
  9. Codec ID                                 : V_MPEG4/ISO/AVC
  10. Duration                                 : 1 h 33 min
  11. Bit rate                                 : 10.3 Mb/s
  12. Width                                    : 1 920 pixels
  13. Height                                   : 808 pixels
  14. Display aspect ratio                     : 2.40:1
  15. Frame rate mode                          : Constant
  16. Frame rate                               : 23.976 (24000/1001) FPS
  17. Color space                              : YUV
  18. Chroma subsampling                       : 4:2:0
  19. Bit depth                                : 8 bits
  20. Scan type                                : Progressive
  21. Bits/(Pixel*Frame)                       : 0.276
  22. Stream size                              : 6.51 GiB (85%)
  23. Writing library                          : x264 core 155 r2901 7d0ff22
  24. Encoding settings                        : cabac=1 / ref=5 / deblock=1:0:0 / analyse=0x3:0x113 / me=umh / subme=8 / psy=1 / psy_rd=1.00:0.00 / mixed_ref=1 / me_range=16 / chroma_me=1 / trellis=1 / 8x8dct=1 / cqm=0 / deadzone=21,11 / fast_pskip=1 / chroma_qp_offset=-2 / threads=24 / lookahead_threads=4 / sliced_threads=0 / nr=0 / decimate=1 / interlaced=0 / bluray_compat=0 / constrained_intra=0 / bframes=3 / b_pyramid=2 / b_adapt=1 / b_bias=0 / direct=3 / weightb=1 / open_gop=0 / weightp=2 / keyint=240 / keyint_min=24 / scenecut=40 / intra_refresh=0 / rc_lookahead=50 / rc=2pass / mbtree=1 / bitrate=10257 / ratetol=1.0 / qcomp=0.60 / qpmin=0 / qpmax=69 / qpstep=4 / cplxblur=20.0 / qblur=0.5 / ip_ratio=1.40 / aq=1:1.00
  25. Language                                 : English
  26. Default                                  : Yes
  27. Forced                                   : No

  28. Audio
  29. ID                                       : 2
  30. Format                                   : DTS
  31. Format/Info                              : Digital Theater Systems
  32. Codec ID                                 : A_DTS
  33. Duration                                 : 1 h 33 min
  34. Bit rate mode                            : Constant
  35. Bit rate                                 : 1 509 kb/s
  36. Channel(s)                               : 6 channels
  37. Channel layout                           : C L R Ls Rs LFE
  38. Sampling rate                            : 48.0 kHz
  39. Frame rate                               : 93.750 FPS (512 SPF)
  40. Bit depth                                : 24 bits
  41. Compression mode                         : Lossy
  42. Stream size                              : 1 004 MiB (13%)
  43. Language                                 : English
  44. Default                                  : Yes
  45. Forced                                   : No

  46. Text #1
  47. ID                                       : 3
  48. Format                                   : UTF-8
  49. Codec ID                                 : S_TEXT/UTF8
  50. Codec ID/Info                            : UTF-8 Plain Text
  51. Title                                    : English regular
  52. Language                                 : English
  53. Default                                  : No
  54. Forced                                   : No

  55. Text #2
  56. ID                                       : 4
  57. Format                                   : UTF-8
  58. Codec ID                                 : S_TEXT/UTF8
  59. Codec ID/Info                            : UTF-8 Plain Text
  60. Title                                    : English sdh
  61. Language                                 : English
  62. Default                                  : No
  63. Forced                                   : No

  64. Menu
  65. 00:00:00.000                             : en:00:00:00.000
  66. 00:03:21.618                             : en:00:03:21.618
  67. 00:08:18.498                             : en:00:08:18.498
  68. 00:13:35.940                             : en:00:13:35.940
  69. 00:19:34.507                             : en:00:19:34.507
  70. 00:23:02.214                             : en:00:23:02.214
  71. 00:26:35.761                             : en:00:26:35.761
  72. 00:30:38.962                             : en:00:30:38.962
  73. 00:34:17.472                             : en:00:34:17.472
  74. 00:38:02.155                             : en:00:38:02.155
  75. 00:41:30.697                             : en:00:41:30.697
  76. 00:44:40.887                             : en:00:44:40.887
  77. 00:48:19.230                             : en:00:48:19.230
  78. 00:50:06.003                             : en:00:50:06.003
  79. 00:53:44.304                             : en:00:53:44.304
  80. 00:56:18.875                             : en:00:56:18.875
  81. 01:00:09.981                             : en:01:00:09.981
  82. 01:04:19.022                             : en:01:04:19.022
  83. 01:09:40.968                             : en:01:09:40.968
  84. 01:14:20.790                             : en:01:14:20.790
  85. 01:18:02.595                             : en:01:18:02.595
  86. 01:21:18.248                             : en:01:21:18.248
  87. 01:24:33.944                             : en:01:24:33.944
  88. 01:26:49.996                             : en:01:26:49.996
复制代码

复制代码

老人和枪/老人与枪 The.Old.Man.And.The.Gun.2018.1080p.BluRay.x264-Replica 7.71GB-2.jpg





回复

使用道具 举报

懒得打字嘛,点击右侧快捷回复 【右侧内容,后台自定义】
您需要登录后才可以回帖 登录 | 立即注册

本版积分规则

QQ|Archiver|手机版|小黑屋|中国高清网 |网站地图

GMT+8, 2019-1-17 12:45 , Processed in 0.131166 second(s), 41 queries .

Powered by HDchina X3.4

Copyright 2017-2018©HDchina.All right reserved

返回顶部 联系我们