你所知道的4K资源这里全部都有 4K电影 | 4K视频 | 4K壁纸 | 4K MV 怎么播放4K视频 | 4K电视演示片

教你玩转4K私人与家庭影院存储 NAS组装 | 黑群辉 家庭/影院Nas论坛

4K家庭影院信号源与视频设备知识 4K蓝光高清播放机 - 那个品牌好? 4K投影机论坛 | 4K电视机论坛

手把手教你搭建属于自己的家庭影院 4K家庭影院案例 | 家庭影院音频 4K家庭影院论坛

查看: 180|回复: 2

[剧情片] 艾什 Asher.2018.1080p.BluRay.REMUX.AVC.DTS-HD.MA.5.1-FGT 19.90GB

[复制链接]

 成长值: 1670

级别:资源管理组

注册时间
2017-10-20
最后登录
2019-6-25
听众
0
收听
0
主题
78745
蓝光币
28946 枚
贡献
3070 点
发表于 2019-1-7 10:04:41 | 显示全部楼层 |阅读模式

艾什 Asher.2018.1080p.BluRay.REMUX.AVC.DTS-HD.MA.5.1-FGT 19.90GB-1.jpg
◎译  名 艾什
◎片  名 艾什 Asher
◎年  代 2018
◎国  家 美国
◎类  别 剧情 / 惊悚 / 犯罪
◎语  言 英语
◎上映日期 2018-12-07(美国)
◎IMDb评分  5.4/10 from 749 users
◎IMDb链接  http://www.imdb.com/title/tt6131450/
◎豆瓣评分 5.9/10 from 184 users
◎豆瓣链接 https://movie.douban.com/subject/27032782/
◎片  长 117分钟
◎导  演 迈克尔·卡顿-琼斯
◎主  演 朗·普尔曼
      法米克·詹森
      彼得·费辛利
      娜丁·维拉兹盖兹
      理查德·德莱弗斯
      杰奎琳·比塞特
      盖·布耐特

◎简  介 

  影片报告了一位杀手Asher(朗·普尔曼 饰)在履行最初一个使命时,碰到了一个让他生活倾覆的女人(法米克·詹森 饰)。


  1. Video
  2. ID                                       : 1
  3. Format                                   : AVC
  4. Format/Info                              : Advanced Video Codec
  5. Format profile                           : [url=/cdn-cgi/l/email-protection][email protected][/url]
  6. Format settings                          : CABAC / 4 Ref Frames
  7. Format settings, CABAC                   : Yes
  8. Format settings, ReFrames                : 4 frames
  9. Codec ID                                 : V_MPEG4/ISO/AVC
  10. Duration                                 : 1 h 44 min
  11. Bit rate mode                            : Variable
  12. Bit rate                                 : 24.0 Mb/s
  13. Maximum bit rate                         : 35.0 Mb/s
  14. Width                                    : 1 920 pixels
  15. Height                                   : 1 080 pixels
  16. Display aspect ratio                     : 16:9
  17. Frame rate mode                          : Constant
  18. Frame rate                               : 23.976 (24000/1001) FPS
  19. Standard                                 : NTSC
  20. Color space                              : YUV
  21. Chroma subsampling                       : 4:2:0
  22. Bit depth                                : 8 bits
  23. Scan type                                : Progressive
  24. Bits/(Pixel*Frame)                       : 0.483
  25. Stream size                              : 17.4 GiB (88%)
  26. Title                                    : Asher.2018.1080p.BluRay.REMUX.AVC.DTS-HD.MA.5.1-FGT
  27. Language                                 : English
  28. Default                                  : No
  29. Forced                                   : No
  30. Color range                              : Limited
  31. Color primaries                          : BT.709
  32. Transfer characteristics                 : BT.709
  33. Matrix coefficients                      : BT.709

  34. Audio #1
  35. ID                                       : 2
  36. Format                                   : DTS XLL
  37. Format/Info                              : Digital Theater Systems
  38. Commercial name                          : DTS-HD Master Audio
  39. Codec ID                                 : A_DTS
  40. Duration                                 : 1 h 44 min
  41. Bit rate mode                            : Variable
  42. Bit rate                                 : 1 862 kb/s
  43. Channel(s)                               : 6 channels
  44. Channel layout                           : C L R Ls Rs LFE
  45. Sampling rate                            : 48.0 kHz
  46. Frame rate                               : 93.750 FPS (512 SPF)
  47. Bit depth                                : 16 bits
  48. Compression mode                         : Lossless
  49. Stream size                              : 1.35 GiB (7%)
  50. Title                                    : Asher.2018.1080p.BluRay.REMUX.AVC.DTS-HD.MA.5.1-FGT
  51. Language                                 : English
  52. Default                                  : Yes
  53. Forced                                   : No

  54. Audio #2
  55. ID                                       : 3
  56. Format                                   : DTS
  57. Format/Info                              : Digital Theater Systems
  58. Codec ID                                 : A_DTS
  59. Duration                                 : 1 h 44 min
  60. Bit rate mode                            : Constant
  61. Bit rate                                 : 1 509 kb/s
  62. Channel(s)                               : 6 channels
  63. Channel layout                           : C L R Ls Rs LFE
  64. Sampling rate                            : 48.0 kHz
  65. Frame rate                               : 93.750 FPS (512 SPF)
  66. Bit depth                                : 16 bits
  67. Compression mode                         : Lossy
  68. Stream size                              : 1.10 GiB (6%)
  69. Title                                    : Asher.2018.1080p.BluRay.REMUX.AVC.DTS-HD.MA.5.1-FGT
  70. Language                                 : English
  71. Default                                  : No
  72. Forced                                   : No

  73. Text
  74. ID                                       : 4
  75. Format                                   : PGS
  76. Muxing mode                              : zlib
  77. Codec ID                                 : S_HDMV/PGS
  78. Codec ID/Info                            : Picture based subtitle format used on BDs/HD-DVDs
  79. Duration                                 : 1 h 43 min
  80. Bit rate                                 : 26.5 kb/s
  81. Count of elements                        : 1976
  82. Stream size                              : 19.6 MiB (0%)
  83. Title                                    : English-PGS
  84. Language                                 : English
  85. Default                                  : Yes
  86. Forced                                   : No

  87. Menu
  88. 00:00:00.000                             : en:Chapter 01
  89. 00:06:31.641                             : en:Chapter 02
  90. 00:14:27.950                             : en:Chapter 03
  91. 00:19:57.112                             : en:Chapter 04
  92. 00:26:55.322                             : en:Chapter 05
  93. 00:32:28.905                             : en:Chapter 06
  94. 00:38:28.222                             : en:Chapter 07
  95. 00:45:13.627                             : en:Chapter 08
  96. 00:52:10.710                             : en:Chapter 09
  97. 01:00:41.804                             : en:Chapter 10
  98. 01:05:29.967                             : en:Chapter 11
  99. 01:10:38.776                             : en:Chapter 12
  100. 01:19:02.571                             : en:Chapter 13
  101. 01:25:53.857                             : en:Chapter 14
  102. 01:32:51.857                             : en:Chapter 15
  103. 01:38:57.139                             : en:Chapter 16
复制代码

复制代码

艾什 Asher.2018.1080p.BluRay.REMUX.AVC.DTS-HD.MA.5.1-FGT 19.90GB-2.png 艾什 Asher.2018.1080p.BluRay.REMUX.AVC.DTS-HD.MA.5.1-FGT 19.90GB-3.png 艾什 Asher.2018.1080p.BluRay.REMUX.AVC.DTS-HD.MA.5.1-FGT 19.90GB-4.png





回复

使用道具 举报

级别:群众演员 Lv.3

注册时间
2018-12-11
最后登录
2019-6-20
听众
7
收听
0
主题
0
蓝光币
246 枚
贡献
0 点
QQ
发表于 2019-1-8 17:21:27 | 显示全部楼层
谢谢分享!!!!
回复

使用道具 举报

级别:荣升主角 Lv.5

注册时间
2018-5-27
最后登录
2019-6-24
听众
10
收听
0
主题
0
蓝光币
135 枚
贡献
0 点
发表于 2019-1-11 21:39:31 | 显示全部楼层
感谢分享!
回复

使用道具 举报

*滑动验证:
懒得打字嘛,点击右侧快捷回复 【右侧内容,后台自定义】
您需要登录后才可以回帖 登录 | 立即注册

本版积分规则

QQ|Archiver|手机版|小黑屋| 中国高清网 |网站地图

GMT+8, 2019-6-25 01:15 , Processed in 0.257726 second(s), 45 queries .

Powered by HDchina X3.4

Copyright 2017-2019©HDchina.All right reserved

返回顶部 联系我们