你所知道的4K资源这里全部都有 4K电影 | 4K视频 | 4K壁纸 | 4K MV 怎么播放4K视频 | 4K电视演示片

教你玩转4K私人与家庭影院存储 NAS组装 | 黑群辉 家庭/影院Nas论坛

4K家庭影院信号源与视频设备知识 4K蓝光高清播放机 - 那个品牌好? 4K投影机论坛 | 4K电视机论坛

手把手教你搭建属于自己的家庭影院 4K家庭影院案例 | 家庭影院音频 4K家庭影院论坛

查看: 126|回复: 1

[喜剧片] 时间怪客 Time.Freak.2018.1080p.BluRay.REMUX.AVC.DTS-HD.MA.5.1-FGT 29.29GB

[复制链接]

 成长值: 730

级别:资源管理组

注册时间
2017-10-20
最后登录
2019-3-24
听众
0
收听
0
主题
76515
蓝光币
135276 枚
贡献
146324 点
发表于 2019-1-7 10:03:26 | 显示全部楼层 |阅读模式

时候怪客 Time.Freak.2018.1080p.BluRay.REMUX.AVC.DTS-HD.MA.5.1-FGT 29.29GB-1.jpg
◎译  名 时候怪客
◎片  名 时候怪客 Time Freak
◎年  代 2018
◎国  家 美国
◎类  别 笑剧 / 恋爱 / 科幻
◎语  言 英语
◎上映日期 2018-11-09(美国)
◎IMDb评分  5.8/10 from 1,442 users
◎IMDb链接  http://www.imdb.com/title/tt6769280/
◎豆瓣评分 6.2/10 from 464 users
◎豆瓣链接 https://movie.douban.com/subject/27019570/
◎片  长 104分钟
◎导  演 安德鲁·鲍勒
◎主  演 阿萨·巴特菲尔德
      苏菲·特纳
      斯凯勒·吉桑多
      奥布雷·雷诺兹
      约瑟夫·朴
      凯登·J·格雷戈尔
      科洛尔·钱伯斯
      马克·布洛克维奇
      玛丽莲·米勒
      威廉·佩尔茨

◎简  介 

  一个心碎的物理门生(Asa Butterfield),当他的女友Debbie(Sophie Turner)和他分手后,他发现了一台时候机械。试图回到曩昔处理爱情中的毛病...改编自导演Andrew Bowler11年的同名短片。


  1. Video
  2. ID                                       : 1
  3. Format                                   : AVC
  4. Format/Info                              : Advanced Video Codec
  5. Format profile                           : [url=/cdn-cgi/l/email-protection][email protected][/url]
  6. Format settings                          : CABAC / 4 Ref Frames
  7. Format settings, CABAC                   : Yes
  8. Format settings, ReFrames                : 4 frames
  9. Codec ID                                 : V_MPEG4/ISO/AVC
  10. Duration                                 : 1 h 44 min
  11. Bit rate mode                            : Variable
  12. Bit rate                                 : 34.6 Mb/s
  13. Maximum bit rate                         : 37.0 Mb/s
  14. Width                                    : 1 920 pixels
  15. Height                                   : 1 080 pixels
  16. Display aspect ratio                     : 16:9
  17. Frame rate mode                          : Constant
  18. Frame rate                               : 23.976 (24000/1001) FPS
  19. Color space                              : YUV
  20. Chroma subsampling                       : 4:2:0
  21. Bit depth                                : 8 bits
  22. Scan type                                : Progressive
  23. Bits/(Pixel*Frame)                       : 0.696
  24. Stream size                              : 25.3 GiB (86%)
  25. Title                                    : Time.Freak.2018.1080p.BluRay.REMUX.AVC.DTS-HD.MA.5.1-FGT
  26. Language                                 : English
  27. Default                                  : No
  28. Forced                                   : No

  29. Audio #1
  30. ID                                       : 2
  31. Format                                   : DTS XLL
  32. Format/Info                              : Digital Theater Systems
  33. Commercial name                          : DTS-HD Master Audio
  34. Codec ID                                 : A_DTS
  35. Duration                                 : 1 h 44 min
  36. Bit rate mode                            : Variable
  37. Bit rate                                 : 3 462 kb/s
  38. Channel(s)                               : 6 channels
  39. Channel layout                           : C L R Ls Rs LFE
  40. Sampling rate                            : 48.0 kHz
  41. Frame rate                               : 93.750 FPS (512 SPF)
  42. Bit depth                                : 24 bits
  43. Compression mode                         : Lossless
  44. Stream size                              : 2.54 GiB (9%)
  45. Title                                    : Time.Freak.2018.1080p.BluRay.REMUX.AVC.DTS-HD.MA.5.1-FGT
  46. Language                                 : English
  47. Default                                  : Yes
  48. Forced                                   : No

  49. Audio #2
  50. ID                                       : 3
  51. Format                                   : DTS
  52. Format/Info                              : Digital Theater Systems
  53. Codec ID                                 : A_DTS
  54. Duration                                 : 1 h 44 min
  55. Bit rate mode                            : Constant
  56. Bit rate                                 : 1 509 kb/s
  57. Channel(s)                               : 6 channels
  58. Channel layout                           : C L R Ls Rs LFE
  59. Sampling rate                            : 48.0 kHz
  60. Frame rate                               : 93.750 FPS (512 SPF)
  61. Bit depth                                : 24 bits
  62. Compression mode                         : Lossy
  63. Stream size                              : 1.11 GiB (4%)
  64. Title                                    : Time.Freak.2018.1080p.BluRay.REMUX.AVC.DTS-HD.MA.5.1-FGT
  65. Language                                 : English
  66. Default                                  : No
  67. Forced                                   : No

  68. Audio #3
  69. ID                                       : 4
  70. Format                                   : AC-3
  71. Format/Info                              : Audio Coding 3
  72. Commercial name                          : Dolby Digital
  73. Codec ID                                 : A_AC3
  74. Duration                                 : 1 h 44 min
  75. Bit rate mode                            : Constant
  76. Bit rate                                 : 192 kb/s
  77. Channel(s)                               : 2 channels
  78. Channel layout                           : L R
  79. Sampling rate                            : 48.0 kHz
  80. Frame rate                               : 31.250 FPS (1536 SPF)
  81. Bit depth                                : 16 bits
  82. Compression mode                         : Lossy
  83. Stream size                              : 144 MiB (0%)
  84. Title                                    : Time.Freak.2018.1080p.BluRay.REMUX.AVC.DTS-HD.MA.5.1-FGT
  85. Language                                 : English
  86. Service kind                             : Complete Main
  87. Default                                  : No
  88. Forced                                   : No

  89. Audio #4
  90. ID                                       : 5
  91. Format                                   : AC-3
  92. Format/Info                              : Audio Coding 3
  93. Commercial name                          : Dolby Digital
  94. Codec ID                                 : A_AC3
  95. Duration                                 : 1 h 44 min
  96. Bit rate mode                            : Constant
  97. Bit rate                                 : 192 kb/s
  98. Channel(s)                               : 2 channels
  99. Channel layout                           : L R
  100. Sampling rate                            : 48.0 kHz
  101. Frame rate                               : 31.250 FPS (1536 SPF)
  102. Bit depth                                : 16 bits
  103. Compression mode                         : Lossy
  104. Stream size                              : 144 MiB (0%)
  105. Title                                    : Time.Freak.2018.1080p.BluRay.REMUX.AVC.DTS-HD.MA.5.1-FGT
  106. Language                                 : English
  107. Service kind                             : Complete Main
  108. Default                                  : No
  109. Forced                                   : No

  110. Text #1
  111. ID                                       : 6
  112. Format                                   : PGS
  113. Muxing mode                              : zlib
  114. Codec ID                                 : S_HDMV/PGS
  115. Codec ID/Info                            : Picture based subtitle format used on BDs/HD-DVDs
  116. Duration                                 : 1 h 38 min
  117. Bit rate                                 : 53.8 kb/s
  118. Count of elements                        : 3328
  119. Stream size                              : 38.0 MiB (0%)
  120. Title                                    : English-PGS
  121. Language                                 : English
  122. Default                                  : Yes
  123. Forced                                   : No

  124. Text #2
  125. ID                                       : 7
  126. Format                                   : PGS
  127. Muxing mode                              : zlib
  128. Codec ID                                 : S_HDMV/PGS
  129. Codec ID/Info                            : Picture based subtitle format used on BDs/HD-DVDs
  130. Duration                                 : 1 h 38 min
  131. Bit rate                                 : 47.3 kb/s
  132. Count of elements                        : 3150
  133. Stream size                              : 33.3 MiB (0%)
  134. Language                                 : Spanish
  135. Default                                  : No
  136. Forced                                   : No

  137. Menu
  138. 00:00:00.000                             : en:Chapter 01
  139. 00:04:52.417                             : en:Chapter 02
  140. 00:13:02.531                             : en:Chapter 03
  141. 00:21:34.293                             : en:Chapter 04
  142. 00:27:18.678                             : en:Chapter 05
  143. 00:34:16.846                             : en:Chapter 06
  144. 00:41:16.765                             : en:Chapter 07
  145. 00:45:10.624                             : en:Chapter 08
  146. 00:52:59.634                             : en:Chapter 09
  147. 00:57:34.742                             : en:Chapter 10
  148. 01:04:36.247                             : en:Chapter 11
  149. 01:13:16.350                             : en:Chapter 12
  150. 01:16:20.909                             : en:Chapter 13
  151. 01:23:36.469                             : en:Chapter 14
  152. 01:32:09.857                             : en:Chapter 15
  153. 01:35:38.566                             : en:Chapter 16
复制代码

复制代码

时候怪客 Time.Freak.2018.1080p.BluRay.REMUX.AVC.DTS-HD.MA.5.1-FGT 29.29GB-2.png 时候怪客 Time.Freak.2018.1080p.BluRay.REMUX.AVC.DTS-HD.MA.5.1-FGT 29.29GB-3.png 时候怪客 Time.Freak.2018.1080p.BluRay.REMUX.AVC.DTS-HD.MA.5.1-FGT 29.29GB-4.png





回复

使用道具 举报

级别:荣升主角 Lv.5

注册时间
2018-5-27
最后登录
2019-3-23
听众
4
收听
0
主题
0
蓝光币
17 枚
贡献
0 点
发表于 2019-1-11 21:43:29 | 显示全部楼层
感谢分享!
回复

使用道具 举报

懒得打字嘛,点击右侧快捷回复 【右侧内容,后台自定义】
您需要登录后才可以回帖 登录 | 立即注册

本版积分规则

QQ|Archiver|手机版|小黑屋|中国高清网 |网站地图

GMT+8, 2019-3-24 10:37 , Processed in 0.178612 second(s), 41 queries .

Powered by HDchina X3.4

Copyright 2017-2018©HDchina.All right reserved

返回顶部 联系我们